<?xml version="1.0" standalone="no"?>
<!DOCTYPE svg PUBLIC "-//W3C//DTD SVG 1.1//EN" "http://www.w3.org/Graphics/SVG/1.1/DTD/svg11.dtd" >
<svg xmlns="http://www.w3.org/2000/svg">
<metadata>
Created by FontPrep 20130207 at Tue Apr  7 21:17:14 2015
 By Christoph
Copyright (c) 2015 by Volkswagen AG. All rights reserved.
</metadata>
<defs>
<font id="194f5394ae2e9c74dc3c441b92862d1d" >
  <font-face 
    font-family="Font"
    font-weight="700"
    font-stretch="normal"
    units-per-em="2048"
    panose-1="2 11 8 4 4 2 0 0 0 3"
    ascent="1638"
    descent="-410"
    x-height="987"
    cap-height="1393"
    bbox="-410 -451 2320 1937.02"
    underline-thickness="184"
    underline-position="-41"
    unicode-range="U+0020-FB02"
  />
<missing-glyph horiz-adv-x="1050" 
d="M829 119v1155h-608v-1155h608zM102 1393h846v-1393h-846v1393z" />
    <glyph glyph-name=".notdef" horiz-adv-x="1050" 
d="M829 119v1155h-608v-1155h608zM102 1393h846v-1393h-846v1393z" />
    <glyph glyph-name="glyph1" horiz-adv-x="0" 
 />
    <glyph glyph-name="glyph2" horiz-adv-x="473" 
 />
    <glyph glyph-name="space" unicode=" " horiz-adv-x="473" 
 />
    <glyph glyph-name="exclam" unicode="!" horiz-adv-x="575" 
d="M113 145.5q0 77.5 47 127t127 49.5t127 -49.5t47 -127t-47 -127t-127 -49.5t-127 49.5t-47 127zM139 1393h297v-310l-57 -591h-182l-58 591v310z" />
    <glyph glyph-name="quotedbl" unicode="&#x22;" horiz-adv-x="909" 
d="M510 1393h285v-193l-58 -371h-170l-57 371v193zM115 1393h284v-193l-57 -371h-170l-57 371v193z" />
    <glyph glyph-name="numbersign" unicode="#" horiz-adv-x="1488" 
d="M537 516h309l100 348h-309zM172 0v20l86 306h-195v190h250l101 348h-185v191h238l98 338h217v-21l-92 -317h309l99 338h217v-21l-92 -317h202v-191h-256l-100 -348h191v-190h-246l-92 -326h-217v20l86 306h-310l-92 -326h-217z" />
    <glyph glyph-name="dollar" unicode="$" 
d="M834 385q0 57 -32 94t-95 66v-338q127 50 127 178zM401 1038q0 -76 28.5 -117t105.5 -67v336q-134 -40 -134 -152zM530 1577h183v-158q199 -26 340 -96l-86 -227q-107 55 -254 82v-363q203 -64 296 -157t93 -248q0 -266 -148.5 -341t-240.5 -89v-201h-183v192
q-117 10 -231.5 48t-189.5 83l88 224q57 -37 150 -71t183 -44v377l-65 22q-334 111 -330 387q0 166 99.5 279t295.5 139v162z" />
    <glyph glyph-name="percent" unicode="%" horiz-adv-x="1654" 
d="M694 1031q0 -173 -85 -274q-85 -102 -230 -102t-230 103t-84 273t83 275q82 103 229 103t232 -103q85 -102 85 -275zM377 1243q-113 0 -113 -211t113 -211q121 0 121 211t-121 211zM1589 359q0 -173 -85 -275t-231 -101q-145 1 -230 103q-84 103 -83 273t83 275
q84 105 229 103q76 0 134 -26q118 -55 162 -197q22 -70 21 -155zM1272 571q-113 -1 -113 -211t113 -210q121 0 121 210t-121 211zM258 0v20l934 1373h213v-21l-934 -1372h-213z" />
    <glyph glyph-name="ampersand" unicode="&#x26;" horiz-adv-x="1521" 
d="M524 1061q0 -84 78 -158l35 -37l57 35q55 31 89 66t34 87t-40.5 92t-108.5 40t-106 -39t-38 -86zM570 213q154 0 286 96l-270 275l-25 -15q-78 -44 -126 -88t-48 -114t49.5 -112t133.5 -42zM1493 0h-330l-143 143q-223 -174 -473 -174q-207 0 -330 104t-123 285
t118.5 255.5t215.5 129.5l-88 93q-88 94 -88 236q0 143 116 247t296 104t296.5 -105t116.5 -261t-96 -228.5t-141 -99.5l-39 -22l233 -232q83 97 211 283l191 -127q-127 -192 -240 -318l297 -293v-20z" />
    <glyph glyph-name="quotesingle" unicode="'" horiz-adv-x="514" 
d="M115 1393h284v-193l-57 -371h-170l-57 371v193z" />
    <glyph glyph-name="parenleft" unicode="(" horiz-adv-x="589" 
d="M342 514q0 -495 178 -883l-160 -69q-188 280 -231 541.5t-43 475.5t78 463t196 424l160 -69q-178 -388 -178 -883z" />
    <glyph glyph-name="parenright" unicode=")" horiz-adv-x="589" 
d="M248 514q0 495 -178 883l159 69q189 -282 232 -542t43 -474.5t-78.5 -465t-196.5 -422.5l-159 69q178 388 178 883z" />
    <glyph glyph-name="asterisk" unicode="*" horiz-adv-x="903" 
d="M375 946l-185 -137l-98 172l213 92v4l-213 92l96 172l185 -137l4 2l-25 228h199l-27 -228l4 -2l185 137l98 -172l-213 -90v-4l213 -94l-96 -172l-187 139l-4 -2l27 -231h-199l27 229z" />
    <glyph glyph-name="plus" unicode="+" 
d="M711 662h413v-211h-413v-439h-219v439h-412v211h412v436h219v-436z" />
    <glyph glyph-name="comma" unicode="," horiz-adv-x="552" 
d="M442 291v-21l-204 -600h-207v21l135 600h276z" />
    <glyph glyph-name="hyphen" unicode="-" horiz-adv-x="847" 
d="M127 451v211h594v-211h-594z" />
    <glyph glyph-name="period" unicode="." horiz-adv-x="557" 
d="M104 145.5q0 77.5 47.5 127t127 49.5t127 -49.5t47.5 -127t-47.5 -127t-127 -49.5t-127 49.5t-47.5 127z" />
    <glyph glyph-name="slash" unicode="/" horiz-adv-x="917" 
d="M51 0v20l578 1373h237v-21l-577 -1372h-238z" />
    <glyph glyph-name="zero" unicode="0" 
d="M63 886.5q0 536.5 539 536.5t539 -628t-196.5 -727t-340.5 -99q-279 0 -410 190.5t-131 727zM360 696q0 -123 12.5 -213t41 -150.5t76 -90t115 -29.5t113.5 29.5t73.5 90t40 150.5t12.5 213t-12.5 213t-40 150.5t-73.5 90.5t-113.5 30t-115 -30t-76 -90.5t-41 -150.5
t-12.5 -213z" />
    <glyph glyph-name="one" unicode="1" 
d="M229 1034v244l344 115h213v-1155h271v-238h-869v238h314v872h-4l-244 -76h-25z" />
    <glyph glyph-name="two" unicode="2" 
d="M498 238h585v-238h-972v205l520 506q141 132 141 270q0 82 -59.5 140.5t-155.5 58.5t-167 -43t-134 -103l-150 185q121 129 247.5 166.5t222.5 37.5q211 0 352 -118t141 -324q0 -125 -58.5 -216t-97.5 -132t-65 -68l-350 -323v-4z" />
    <glyph glyph-name="three" unicode="3" 
d="M719 260.5q74 47.5 74 140.5t-59 138t-199 45h-238v237h238q121 0 171 51.5t50 131t-53.5 128t-196.5 48.5t-307 -70l-82 221q198 92 437 92t369 -104.5t130 -280.5t-86 -237.5t-123 -73.5v-4q104 -37 175 -124t71 -224q0 -187 -143.5 -296.5t-406.5 -109.5t-456 105
l76 225q164 -86 375 -86q110 0 184 47.5z" />
    <glyph glyph-name="four" unicode="4" 
d="M989 940v-408h158v-237h-158v-295h-284v295h-664v205l393 893h285l-365 -856v-5h351v408h284z" />
    <glyph glyph-name="five" unicode="5" 
d="M487 213q301 0 301 218q0 101 -65.5 154.5t-220.5 53.5q-83 0 -281 -12l-35 35l78 731h766v-238h-524l-29 -276q31 4 117 4t181 -23.5t202.5 -107t107.5 -310.5t-154.5 -350t-426.5 -123q-201 0 -416 76l66 240q169 -72 333 -72z" />
    <glyph glyph-name="six" unicode="6" 
d="M848 452.5q0 116.5 -63.5 172t-173.5 55.5t-174 -55.5t-64 -172t64.5 -178t174.5 -61.5t173 61.5t63 178zM1145 452q0 -205 -141 -344t-394 -139t-393.5 137.5t-140.5 331.5t98 353l385 602h315v-21l-321 -471l2 -4q62 27 155 27q188 0 311.5 -133.5t123.5 -338.5z" />
    <glyph glyph-name="seven" unicode="7" 
d="M782 1155h-653v238h963v-205l-533 -1188h-299v20l522 1131v4z" />
    <glyph glyph-name="eight" unicode="8" 
d="M424 1010q0 -170 180 -170t180 170t-180 170t-180 -170zM604 1423q239 0 358 -106t119 -283q0 -125 -54 -195.5t-126 -103.5v-4q106 -41 171 -131t65 -202t-34 -187.5t-100.5 -128.5t-166 -83t-294.5 -30t-332.5 109.5t-137.5 298.5q0 133 64.5 223t170.5 131v4
q-180 78 -180 299q0 177 119 283t358 106zM604 213q125 0 180.5 54.5t55.5 140.5t-55.5 140t-182.5 54t-180 -54t-53 -140t55 -140.5t180 -54.5z" />
    <glyph glyph-name="nine" unicode="9" 
d="M358 940q0 -117 63.5 -172t173.5 -55t174.5 55t64.5 172t-64.5 178.5t-174.5 61.5t-173.5 -61.5t-63.5 -178.5zM496 469q-187 0 -311 133t-124 338t140.5 344t394.5 139t394 -138.5t140 -331.5q0 -192 -98 -351l-385 -602h-315v20l321 472l-2 4q-63 -27 -155 -27z" />
    <glyph glyph-name="colon" unicode=":" horiz-adv-x="602" 
d="M127 842q0 78 47 127t127 49t127 -49t47 -127t-47 -127t-127 -49t-127 49t-47 127zM127 145q0 78 47 127q47 50 127 50t127 -50t47 -127q0 -78 -47 -127t-127 -49t-127 49t-47 127z" />
    <glyph glyph-name="semicolon" unicode=";" horiz-adv-x="604" 
d="M455 291v-21l-205 -600h-207v21l135 600h277zM143 842q0 78 47 127t127 49t127 -49q48 -49 48 -127t-48 -127t-127 -49q-80 0 -127 49t-47 127z" />
    <glyph glyph-name="less" unicode="&#x3c;" 
d="M1094 1116v-223l-799 -336v-6l799 -336v-223h-21l-1024 461v202l1024 461h21z" />
    <glyph glyph-name="equal" unicode="=" 
d="M123 219v211h962v-211h-962zM123 682v211h962v-211h-962z" />
    <glyph glyph-name="greater" unicode="&#x3e;" 
d="M115 -8v223l798 336v6l-798 336v223h20l1024 -461v-202l-1024 -461h-20z" />
    <glyph glyph-name="question" unicode="?" horiz-adv-x="1032" 
d="M307 145.5q0 77.5 47 127t127 49.5t127 -49.5t47 -127t-47 -127t-127 -49.5t-127 49.5t-47 127zM664 1016q0 73 -50 118.5t-136 45.5q-87 0 -154.5 -43t-126.5 -103l-146 191q109 125 234 161.5t217 36.5q201 0 330 -102.5t129 -267.5t-98 -264.5t-242 -170.5l-27 -126
h-223l-13 264q215 63 260.5 142t45.5 118z" />
    <glyph glyph-name="at" unicode="@" horiz-adv-x="1843" 
d="M721 494q0 -78 36 -127.5t105 -49.5t115.5 22.5t62.5 35.5l68 416q-57 53 -131 53t-118 -29t-91 -101.5t-47 -219.5zM88 573q0 174 61.5 336t177 285t283.5 196.5t368 73.5t347.5 -60.5t247.5 -164.5t153.5 -243.5t53.5 -289.5t-38 -263t-99.5 -190t-140.5 -116t-159 -39
q-180 0 -251 131h-5q-137 -106 -276 -106t-227 100.5t-88 257.5q0 216 117 385.5t309 169.5q86 0 139 -31.5t92 -64.5h2l47 72h160l-98 -545q-17 -102 5 -151.5t91 -49.5q99 0 170.5 113t71.5 319q0 261 -154.5 431.5t-473.5 170.5t-509.5 -212.5t-190.5 -524.5
q0 -315 171 -501.5t493 -186.5q131 0 330 53l41 -151q-166 -64 -366 -64q-403 0 -629 224t-226 636z" />
    <glyph glyph-name="A" unicode="A" horiz-adv-x="1368" 
d="M680 1102l-191 -586h388l-191 586h-6zM1362 0h-313l-93 287h-544l-95 -287h-311l512 1393h332z" />
    <glyph glyph-name="B" unicode="B" horiz-adv-x="1335" 
d="M446 827h213q181 0 206.5 57.5t25.5 127.5t-51.5 106.5t-184.5 36.5h-209v-328zM1247 397q0 -197 -120.5 -297t-391.5 -100h-573v1393h510q254 0 385 -89.5t131 -287.5q0 -113 -53.5 -184.5t-126.5 -104.5v-4q239 -82 239 -326zM446 238h265q188 0 213.5 66.5t25.5 113.5
q0 94 -56 139t-196 45h-252v-364z" />
    <glyph glyph-name="C" unicode="C" horiz-adv-x="1239" 
d="M792 -31q-343 0 -520.5 197.5t-177.5 529.5t176.5 529.5t501.5 197.5q203 0 395 -90l-75 -225q-162 72 -332 72t-269.5 -130.5t-99.5 -413t144.5 -353t236.5 -70.5q158 0 320 72l75 -226q-191 -90 -375 -90z" />
    <glyph glyph-name="D" unicode="D" horiz-adv-x="1413" 
d="M571 238q260 0 351.5 105.5t91.5 353t-91.5 353t-351.5 105.5h-125v-917h125zM162 1393h436q382 0 547.5 -174.5t165.5 -522.5t-166 -522t-547 -174h-436v1393z" />
    <glyph glyph-name="E" unicode="E" 
d="M1096 1393v-238h-650v-334h582v-237h-582v-346h656v-238h-940v1393h934z" />
    <glyph glyph-name="F" unicode="F" horiz-adv-x="1169" 
d="M1096 1393v-238h-650v-383h582v-237h-582v-535h-284v1393h934z" />
    <glyph glyph-name="G" unicode="G" horiz-adv-x="1404" 
d="M791 213q123 0 210 37v260l-247 35v203h532v-658q-96 -51 -240 -86t-300 -35q-312 0 -482 197t-170 519t177.5 530t525.5 208q141 0 266 -31.5t207 -68.5l-82 -221q-184 78 -391 78t-306.5 -127.5t-99.5 -356.5q0 -346 138.5 -414.5t261.5 -68.5z" />
    <glyph glyph-name="H" unicode="H" horiz-adv-x="1478" 
d="M1032 584h-586v-584h-284v1393h284v-572h586v572h285v-1393h-285v584z" />
    <glyph glyph-name="I" unicode="I" horiz-adv-x="608" 
d="M446 0h-284v1393h284v-1393z" />
    <glyph glyph-name="J" unicode="J" horiz-adv-x="987" 
d="M381 213q88 0 129 65t41 164v951h285v-969q0 -227 -122 -341t-330 -114t-370 146l129 204q87 -80 140 -93t98 -13z" />
    <glyph glyph-name="K" unicode="K" horiz-adv-x="1316" 
d="M446 623v-623h-284v1393h284v-674h5l507 674h316v-21l-533 -690l559 -662v-20h-331l-518 623h-5z" />
    <glyph glyph-name="L" unicode="L" horiz-adv-x="1091" 
d="M446 1393v-1155h601v-238h-885v1393h284z" />
    <glyph glyph-name="M" unicode="M" horiz-adv-x="1724" 
d="M1563 1393v-1393h-285v905h-4l-299 -555h-225l-299 555h-5v-905h-284v1393h274l424 -746h4l424 746h275z" />
    <glyph glyph-name="N" unicode="N" horiz-adv-x="1507" 
d="M1061 432v961h285v-1393h-302l-591 961h-7v-961h-284v1393h301l592 -961h6z" />
    <glyph glyph-name="O" unicode="O" horiz-adv-x="1533" 
d="M1438 696.5q0 -321.5 -169 -524.5t-502 -203t-502 203t-169 524.5t168.5 524t502.5 202.5t502.5 -202.5t168.5 -524zM393 696.5q0 -224.5 90.5 -354t285.5 -129.5t283.5 130t88.5 414t-135.5 353.5t-238.5 69.5t-174 -37t-135.5 -129.5t-64.5 -317z" />
    <glyph glyph-name="P" unicode="P" horiz-adv-x="1220" 
d="M446 707h226q104 0 148 63.5t44 161.5t-44 160.5t-148 62.5h-226v-448zM162 0v1393h530q241 0 355 -124.5t114 -394.5t-172 -337.5t-297 -67.5h-246v-469h-284z" />
    <glyph glyph-name="Q" unicode="Q" horiz-adv-x="1533" 
d="M393 696.5q0 -224.5 90.5 -354t285.5 -129.5t283.5 130t88.5 414t-135.5 353.5t-238.5 69.5t-174 -37t-135.5 -129.5t-64.5 -317zM96 696.5q0 321.5 168.5 524t502.5 202.5t502.5 -202.5t168.5 -507.5q0 -413 -242 -611l303 -147l-127 -236l-487 258q-58 -8 -117 -8
q-334 0 -503 203t-169 524.5z" />
    <glyph glyph-name="R" unicode="R" horiz-adv-x="1359" 
d="M735 788q96 0 148.5 50.5t52.5 134.5t-52.5 133t-148.5 49h-289v-367h289zM1233 973q0 -330 -305 -404l381 -536v-33h-312l-372 551h-179v-551h-284v1393h588q248 0 365.5 -109.5t117.5 -310.5z" />
    <glyph glyph-name="S" unicode="S" horiz-adv-x="1148" 
d="M936 1096q-180 88 -350 88q-90 0 -140.5 -44t-50.5 -108t30 -103.5t114 -66.5l145 -47q202 -64 294.5 -157t92.5 -248q0 -206 -139 -323.5t-381 -117.5q-175 0 -302.5 54.5t-170.5 78.5l88 224q130 -79 234 -98t151 -19q229 0 229 176q0 67 -44 104t-152 72l-150 49
q-166 53 -248 153.5t-82 214.5q0 213 131 329t375 116q136 0 249.5 -37.5t162.5 -62.5z" />
    <glyph glyph-name="T" unicode="T" horiz-adv-x="1163" 
d="M1116 1393v-238h-393v-1155h-285v1155h-391v238h1069z" />
    <glyph glyph-name="U" unicode="U" horiz-adv-x="1445" 
d="M509.5 -31q-364.5 0 -364.5 602v822h285v-822q0 -254 106.5 -306t220.5 -52t186.5 94.5t72.5 263.5v822h284v-822q0 -442 -213 -522t-577.5 -80z" />
    <glyph glyph-name="V" unicode="V" horiz-adv-x="1353" 
d="M12 1393h310l354 -1094h6l350 1094h309v-21l-491 -1372h-346l-492 1372v21z" />
    <glyph glyph-name="W" unicode="W" horiz-adv-x="2076" 
d="M39 1393h305l236 -1086h4l288 1086h332l289 -1086h4l234 1086h307v-21l-379 -1372h-338l-281 1079h-2l-280 -1079h-340l-379 1372v21z" />
    <glyph glyph-name="X" unicode="X" horiz-adv-x="1277" 
d="M1235 1393v-21l-393 -674l393 -678v-20h-311l-283 526h-4l-283 -526h-311v20l391 678l-391 674v21h309l285 -525h4l287 525h307z" />
    <glyph glyph-name="Y" unicode="Y" horiz-adv-x="1236" 
d="M1239 1393v-21l-479 -811v-561h-285v561l-481 811v21h311l309 -574h4l310 574h311z" />
    <glyph glyph-name="Z" unicode="Z" horiz-adv-x="1202" 
d="M1108 1393v-205l-682 -946v-4h682v-238h-1032v205l680 946v4h-637v238h989z" />
    <glyph glyph-name="bracketleft" unicode="[" horiz-adv-x="686" 
d="M618 1434v-150l-239 -47v-1446l239 -47v-150h-475v1840h475z" />
    <glyph glyph-name="backslash" unicode="\" horiz-adv-x="917" 
d="M51 1393h238l577 -1373v-20h-237l-578 1372v21z" />
    <glyph glyph-name="bracketright" unicode="]" horiz-adv-x="686" 
d="M543 1434v-1840h-475v150l239 47v1446l-239 47v150h475z" />
    <glyph glyph-name="asciicircum" unicode="^" horiz-adv-x="1032" 
d="M1008 762h-273l-229 416h-8l-230 -416h-272v20l377 652h258l377 -652v-20z" />
    <glyph glyph-name="underscore" unicode="_" horiz-adv-x="1032" 
d="M125 -231v190h782v-190h-782z" />
    <glyph glyph-name="grave" unicode="`" 
d="M377 1460h291l161 -278v-21h-241l-211 281v18z" />
    <glyph glyph-name="a" unicode="a" horiz-adv-x="1112" 
d="M582 426q-252 0 -252 -120t131 -120q53 0 117.5 18.5t107.5 49.5v172h-104zM534 1018q213 0 317.5 -103.5t104.5 -296.5v-403q0 -23 5.5 -30t27.5 -7h72v-188q-82 -15 -153 -15q-132 0 -187 117h-4q-100 -80 -186.5 -101.5t-131.5 -21.5q-166 0 -249.5 88t-83.5 239
t114.5 229.5t372.5 78.5h133v45q0 114 -72.5 128t-95.5 14q-171 0 -328 -72l-65 211q196 88 409 88z" />
    <glyph glyph-name="b" unicode="b" horiz-adv-x="1200" 
d="M406 1434v-519h4q45 33 111.5 68t170.5 35q201 0 315.5 -148t114.5 -376t-114 -376.5t-318 -148.5q-137 0 -212 50.5t-101 68.5h-4l-39 -88h-205v1434h277zM584 197q81 0 125.5 21.5t74 60t43 94t13.5 158.5t-59.5 181.5t-168.5 78.5q-110 0 -206 -60v-475
q97 -59 178 -59z" />
    <glyph glyph-name="c" unicode="c" horiz-adv-x="980" 
d="M651 791q-291 0 -291 -225.5t105 -325t389 -0.5l55 -211q-163 -60 -299 -60q-135 0 -232 37t-164 105.5t-101.5 166t-34.5 278t137.5 321.5t386.5 141q152 0 307 -60l-55 -210q-132 43 -203 43z" />
    <glyph glyph-name="d" unicode="d" horiz-adv-x="1202" 
d="M1073 1434v-1434h-205l-39 88h-4q-27 -18 -58.5 -39.5t-96 -50.5t-164.5 -29q-197 0 -311.5 149t-114.5 376q0 228 114.5 376t317.5 148q102 0 169 -35t112 -68h4v519h276zM618 791q-81 0 -125 -21.5t-74 -60.5t-43.5 -94.5t-13.5 -159t60.5 -181t168.5 -77.5
q109 0 206 59v475q-98 60 -179 60z" />
    <glyph glyph-name="e" unicode="e" horiz-adv-x="1103" 
d="M778 616q0 201 -207 201q-99 0 -155 -68.5t-60 -162.5h420q2 8 2 10v20zM1030 592q0 -86 -14 -178h-660q12 -160 102.5 -192t145.5 -32q151 0 316 62l63 -199q-178 -84 -413 -84t-364.5 149.5t-129.5 374.5q0 226 130.5 375.5t359.5 149.5t346.5 -118.5t117.5 -307.5z
" />
    <glyph glyph-name="f" unicode="f" horiz-adv-x="780" 
d="M597 1217q-58 0 -81.5 -21.5t-23.5 -89.5v-119h245v-211h-245v-776h-277v776h-174v150l174 61v131q0 170 92 248t244 78q99 0 176 -14v-228q-72 15 -130 15z" />
    <glyph glyph-name="g" unicode="g" horiz-adv-x="1200" 
d="M535 -209q147 0 203.5 49t56.5 172v74h-4q-45 -33 -111 -65.5t-171 -32.5q-205 0 -317 143.5t-112 368.5t112.5 371.5t317.5 146.5q132 0 205 -51.5t100 -69.5h4l37 90h215v-924q0 -370 -194.5 -434.5t-360 -64.5t-342.5 96l80 203q134 -72 281 -72zM614 791
q-137 0 -194.5 -76.5t-57.5 -288t234 -211.5q96 0 199 55v459q-102 62 -181 62z" />
    <glyph glyph-name="h" unicode="h" horiz-adv-x="1189" 
d="M795 594q0 197 -177 197q-123 0 -212 -95v-696h-277v1434h277v-529h4q78 70 161.5 91.5t133.5 21.5q176 0 271 -109.5t95 -287.5v-621h-276v594z" />
    <glyph glyph-name="i" unicode="i" horiz-adv-x="534" 
d="M109 1310.5q0 65.5 44.5 108.5t116.5 43t116 -43t44 -108.5t-44 -108.5t-117 -43t-116.5 43t-43.5 108.5zM129 0v987h277v-987h-277z" />
    <glyph glyph-name="j" unicode="j" horiz-adv-x="534" 
d="M109 1310.5q0 65.5 44.5 108.5t116.5 43t116 -43t44 -108.5t-44 -108.5t-117 -43t-116.5 43t-43.5 108.5zM14 -209q61 0 88 31t27 98v1067h277v-1050q0 -193 -89.5 -283t-265.5 -90q-66 0 -143 14v223q45 -10 106 -10z" />
    <glyph glyph-name="k" unicode="k" horiz-adv-x="1101" 
d="M406 457v-457h-277v1434h277v-891h4l346 444h301v-20l-375 -459l393 -488v-20h-313l-352 457h-4z" />
    <glyph glyph-name="l" unicode="l" horiz-adv-x="593" 
d="M379 -18q-141 0 -197.5 70.5t-56.5 217.5v1164h276v-1213q0 -23 5.5 -30t27.5 -7h109v-188q-77 -14 -164 -14z" />
    <glyph glyph-name="m" unicode="m" horiz-adv-x="1853" 
d="M722 1018q191 0 286 -152h4q23 18 98.5 85t258.5 67t274.5 -108.5t91.5 -286.5v-623h-277v594q0 96 -37 146.5t-123 50.5t-142 -33t-93 -62q8 -32 8 -73v-623h-276v594q0 147 -62.5 172t-124.5 25q-93 0 -202 -84v-707h-277v987h219l35 -96h6q142 127 333 127z" />
    <glyph glyph-name="n" unicode="n" horiz-adv-x="1189" 
d="M1071 623v-623h-276v594q0 197 -177 197q-100 0 -212 -84v-707h-277v987h221l37 -96h4q141 127 316 127q174 0 269 -108.5t95 -286.5z" />
    <glyph glyph-name="o" unicode="o" horiz-adv-x="1193" 
d="M979.5 116.5q-138.5 -147.5 -383.5 -147.5t-382.5 149.5t-137.5 375.5q0 227 138 375.5t382 148.5t383 -147t139 -377t-138.5 -377.5zM358 458q0 -109 63.5 -185t174.5 -76q171 0 205.5 111.5t34.5 220.5t-64 185.5t-176 76.5q-169 0 -203.5 -112t-34.5 -221z" />
    <glyph glyph-name="p" unicode="p" horiz-adv-x="1200" 
d="M689 1018q205 0 318 -148.5t113 -375.5q0 -226 -112.5 -375.5t-317.5 -149.5q-104 0 -168.5 35t-111.5 68h-4v-478h-277v1393h203l39 -88h4q51 39 129 79t185 40zM838 452q0 255 -86 297t-148 42q-107 0 -198 -60v-475q92 -59 198 -59q234 0 234 255z" />
    <glyph glyph-name="q" unicode="q" horiz-adv-x="1200" 
d="M1071 -406h-276v478h-4q-47 -33 -112 -68t-170 -35q-204 0 -316.5 149.5t-112.5 375.5t113 375t317 149q140 0 214.5 -50t100.5 -69h4l39 88h203v-1393zM362 536q0 -255 86.5 -297t147.5 -42q107 0 199 59v475q-94 60 -199 60q-234 0 -234 -255z" />
    <glyph glyph-name="r" unicode="r" horiz-adv-x="774" 
d="M406 0h-277v987h223l39 -119h4q54 97 127.5 123.5t119.5 26.5t101 -12l-24 -232q-46 8 -98 8q-139 0 -215 -96v-686z" />
    <glyph glyph-name="s" unicode="s" horiz-adv-x="958" 
d="M621 274q0 45 -35 66.5t-101 38.5l-129 31q-186 44 -227 133.5t-41 156.5q0 145 108.5 231.5t300.5 86.5t369 -72l-75 -196q-156 59 -295 59q-140 0 -140 -90q0 -43 33 -63.5t94 -37.5l125 -30q281 -67 281 -295q0 -150 -111.5 -237t-319.5 -87t-392 94l81 199
q163 -84 318.5 -84t155.5 96z" />
    <glyph glyph-name="t" unicode="t" horiz-adv-x="849" 
d="M545 -31q-164 0 -243 70t-79 219v518h-180v150l180 61v230h277v-230h282v-211h-282v-467q0 -112 116 -112q62 0 160 28v-225q-120 -31 -231 -31z" />
    <glyph glyph-name="u" unicode="u" horiz-adv-x="1177" 
d="M119 365v622h276v-594q0 -96 39 -146t137 -50t201 84v706h277v-987h-224l-37 96h-4q-141 -127 -312 -127t-262 108.5t-91 287.5z" />
    <glyph glyph-name="v" unicode="v" horiz-adv-x="1101" 
d="M23 987h278l248 -706h4l248 706h278v-20l-379 -967h-299l-378 967v20z" />
    <glyph glyph-name="w" unicode="w" horiz-adv-x="1720" 
d="M37 987h276l183 -684h4l211 684h299l211 -684h4l182 684h276v-20l-294 -967h-302l-225 711h-4l-225 -711h-301l-295 967v20z" />
    <glyph glyph-name="x" unicode="x" horiz-adv-x="1103" 
d="M43 0v20l313 474l-313 473v20h297l211 -346h4l209 346h297v-20l-313 -473l313 -474v-20h-297l-209 344h-4l-211 -344h-297z" />
    <glyph glyph-name="y" unicode="y" horiz-adv-x="1085" 
d="M208 -209q67 0 106.5 24.5t62.5 84.5l41 110l-398 957v20h287l238 -672h6l225 672h287v-20l-424 -1088q-125 -315 -395 -315q-83 0 -162 18v219q59 -10 126 -10z" />
    <glyph glyph-name="z" unicode="z" horiz-adv-x="966" 
d="M883 987v-145l-475 -627v-4h475v-211h-813v145l473 627v4h-443v211h783z" />
    <glyph glyph-name="braceleft" unicode="{" horiz-adv-x="751" 
d="M49 612q78 0 130 41t52 121v270q0 198 82.5 294t296.5 96h74v-150q-171 0 -194 -85t-23 -136v-283q0 -121 -41 -184.5t-135 -79.5v-4q94 -16 135 -79.5t41 -184.5v-283q0 -221 217 -221v-150h-74q-310 0 -344.5 148.5t-34.5 241.5v270q0 80 -52 121t-130 41v196z" />
    <glyph glyph-name="bar" unicode="|" horiz-adv-x="468" 
d="M326 -406h-183v1840h183v-1840z" />
    <glyph glyph-name="braceright" unicode="}" horiz-adv-x="751" 
d="M285 1063q0 221 -217 221v150h73q310 0 344.5 -148.5t34.5 -241.5v-270q0 -80 52.5 -121t129.5 -41v-196q-78 0 -130 -41t-52 -121v-270q0 -198 -82.5 -294t-296.5 -96h-73v150q217 0 217 221v283q0 121 41 184.5t135 79.5v4q-94 16 -135 79.5t-41 184.5v283z" />
    <glyph glyph-name="asciitilde" unicode="~" horiz-adv-x="1144" 
d="M358 717q93 0 232 -56.5t203 -56.5q63 0 94 10.5t63 38.5l99 -129q-94 -131 -265 -131q-82 0 -182 39t-154.5 56.5t-129.5 17.5t-128 -51l-98 129q92 133 266 133z" />
    <glyph glyph-name="uni00A0" unicode="&#xa0;" horiz-adv-x="473" 
 />
    <glyph glyph-name="exclamdown" unicode="&#xa1;" horiz-adv-x="548" 
d="M449 842q0 -78 -47.5 -127t-127 -49t-127 49t-47.5 127t47.5 127t127 49t127 -49t47.5 -127zM422 -406h-297v310l57 592h183l57 -592v-310z" />
    <glyph glyph-name="cent" unicode="&#xa2;" 
d="M471 445q0 -157 156 -224v543q-67 -27 -111.5 -94.5t-44.5 -224.5zM809 -197h-182v172q-211 24 -325 163.5t-114 354t114 354t325 165.5v172h182v-174q120 -15 211 -52l-55 -210q-97 29 -156 38v-585q70 10 156 39l55 -211q-93 -35 -211 -52v-174z" />
    <glyph glyph-name="sterling" unicode="&#xa3;" 
d="M578 465q0 -118 -105 -223v-4h600v-238h-934v197q142 80 142 217q0 58 -15 166h-147v211h119q-11 118 -11 190q0 442 482 442q198 0 395 -92l-76 -225q-170 74 -319 74q-185 0 -185 -144t15 -245h368v-211h-338q9 -65 9 -115z" />
    <glyph glyph-name="currency" unicode="&#xa4;" horiz-adv-x="1226" 
d="M459 553q0 -92 42.5 -136t108.5 -44t108 44t42 136t-42 136t-109 44t-108.5 -44t-41.5 -136zM227 549q0 110 45 196l-186 187l152 149l186 -188q78 39 186 39t187 -43l194 192l150 -149l-193 -193q43 -80 43 -188t-43 -184l193 -189l-150 -151l-190 190q-78 -43 -190 -43
t-189 39l-184 -186l-152 151l184 184q-43 77 -43 187z" />
    <glyph glyph-name="yen" unicode="&#xa5;" 
d="M750 254v-254h-285v254h-383v211h383v135h-383v211h262l-319 561v21h311l268 -533h4l269 533h311v-21l-320 -561h258v-211h-376v-135h376v-211h-376z" />
    <glyph glyph-name="brokenbar" unicode="&#xa6;" horiz-adv-x="485" 
d="M152 754v680h182v-680h-182zM334 274v-680h-182v680h182z" />
    <glyph glyph-name="section" unicode="&#xa7;" horiz-adv-x="1185" 
d="M920 274q170 -91 170 -268t-135.5 -276t-372.5 -99t-486 111l88 244q86 -41 189.5 -80t264.5 -39t161 106q0 43 -31 73t-129 67l-238 88q-143 53 -213.5 123.5t-70.5 197.5q0 84 49 146.5t121 97.5v4q-78 41 -124 112.5t-46 163.5q0 180 130.5 278.5t372.5 98.5
q241 0 414 -75l-86 -232q-173 72 -309 72t-183.5 -33t-47.5 -79t30.5 -76.5t112.5 -57.5l199 -70q186 -66 263 -143.5t77 -191.5q0 -164 -170 -258v-5zM461 700q-62 -36 -62 -130t111 -136l235 -90q62 41 62 108q0 118 -107 158z" />
    <glyph glyph-name="dieresis" unicode="&#xa8;" 
d="M668 1310.5q0 65.5 44 108.5t116 43t116.5 -43t44.5 -108.5t-44 -108.5t-117 -43t-116.5 43t-43.5 108.5zM217 1310.5q0 65.5 44 108.5t117 43t117 -43t44 -108.5t-44 -108.5t-117 -43t-117 43t-44 108.5z" />
    <glyph glyph-name="copyright" unicode="&#xa9;" horiz-adv-x="1642" 
d="M438 696.5q0 180.5 101.5 290t294.5 109.5q119 0 231 -49l-49 -148q-87 41 -178 41q-92 0 -148.5 -67.5t-56.5 -176t56 -176t148 -67.5t179 41l49 -148q-108 -49 -231 -49q-193 0 -294.5 109.5t-101.5 290zM240 696q0 -125 46 -232.5t127 -186t189.5 -123.5t233.5 -45
t228 45t179 123.5t118 186t42 232.5t-44 232.5t-122 186.5t-184.5 124t-231.5 45t-231.5 -45t-184 -124t-121.5 -186.5t-44 -232.5zM94 696.5q0 153.5 55.5 286.5t153.5 231.5t231.5 153.5t287 55t286.5 -55t231.5 -153.5t153.5 -231.5t55 -286.5t-55 -287t-153.5 -231.5
t-231.5 -153.5t-286.5 -55.5t-287 55.5t-231.5 153.5t-153.5 231.5t-55.5 287z" />
    <glyph glyph-name="ordfeminine" unicode="&#xaa;" horiz-adv-x="890" 
d="M152 401v179h579v-179h-579zM446 1358q133 0 209 -72t76 -192v-377h-149l-31 55h-2q-29 -25 -83 -49.5t-114 -24.5q-115 0 -167 57.5t-52 150.5t74 144.5t209 51.5h114v18q0 39 -22.5 57.5t-105.5 18.5t-193 -41l-41 154q145 49 278 49zM436 979q-102 -1 -102 -65t69 -64
t127 39v90h-94z" />
    <glyph glyph-name="guillemotleft" unicode="&#xab;" horiz-adv-x="1110" 
d="M70 565l329 449l170 -101l-219 -362l221 -361l-172 -98l-329 449v24zM522 565l330 449l170 -101l-219 -362l221 -361l-172 -98l-330 449v24z" />
    <glyph glyph-name="logicalnot" unicode="&#xac;" 
d="M932 451h-854v211h1044v-459h-190v248z" />
    <glyph glyph-name="uni00AD" unicode="&#xad;" horiz-adv-x="847" 
d="M127 451v211h594v-211h-594z" />
    <glyph glyph-name="registered" unicode="&#xae;" horiz-adv-x="1122" 
d="M633 1235q0 49 -60 49h-84v-98h84q60 0 60 49zM745 1237q0 -104 -100 -133l123 -162v-10h-129l-109 164h-41v-164h-112v446h203q165 0 165 -141zM311.5 892.5q104.5 -104.5 257.5 -104.5t249.5 105t96.5 256.5t-100 255.5t-254 104t-254 -104t-100 -256t104.5 -256.5z
M561 1618q199 0 333 -136t134 -334q0 -197 -134.5 -331.5t-332.5 -134.5t-332.5 134.5t-134.5 331.5t134 333.5t333 136.5z" />
    <glyph glyph-name="macron" unicode="&#xaf;" 
d="M307 1186v211h594v-211h-594z" />
    <glyph glyph-name="degree" unicode="&#xb0;" horiz-adv-x="903" 
d="M451 1423q164 0 263 -91t99 -252t-99.5 -254t-261 -93t-262 93t-100.5 251t98.5 252t262.5 94zM287 1078q0 -75 46 -115.5t121 -40.5t118.5 41t43.5 115t-44 117.5t-118 43.5t-120.5 -43t-46.5 -118z" />
    <glyph glyph-name="plusminus" unicode="&#xb1;" 
d="M1126 211v-211h-1044v211h1044zM713 887h413v-211h-413v-295h-219v295h-412v211h412v395h219v-395z" />
    <glyph glyph-name="uni00B2" unicode="&#xb2;" horiz-adv-x="671" 
d="M326 1073h288v-155h-563v143l301 239q52 41 53 91q1 49 -23 75t-71 27q-47 0 -83 -26t-70 -60l-109 123q108 122 277 125q120 0 200 -63t78 -177q0 -76 -40 -130t-99 -99l-139 -109v-4z" />
    <glyph glyph-name="uni00B3" unicode="&#xb3;" horiz-adv-x="663" 
d="M295 1065q119 0 119 76q0 35 -26 46t-85 11h-143v158h141q94 0 92 67q0 70 -102 70t-185 -35l-53 150q118 45 252 46q133 1 209 -52q76 -52 76 -140t-37 -124t-78 -42v-2q135 -41 135 -180q0 -96 -74 -155q-75 -58 -235 -58t-266 55l49 154q92 -45 211 -45z" />
    <glyph glyph-name="acute" unicode="&#xb4;" 
d="M377 1161v21l162 278h290v-18l-211 -281h-241z" />
    <glyph glyph-name="mu" unicode="&#xb5;" horiz-adv-x="1181" 
d="M416 -406h-277v1393h277v-594q0 -96 39 -146t134 -50t204 84v706h276v-987h-223l-37 96h-4q-141 -127 -273 -127q-69 0 -116 33v-408z" />
    <glyph glyph-name="paragraph" unicode="&#xb6;" horiz-adv-x="1228" 
d="M436 672q-164 0 -271.5 95t-107.5 262.5t108.5 265.5t270.5 98h731v-174h-194v-1625h-180v1625h-175v-1625h-182v1078z" />
    <glyph glyph-name="periodcentered" unicode="&#xb7;" horiz-adv-x="569" 
d="M111 596q0 78 47 127t127 49t127 -49t47 -127t-47 -127t-127 -49t-127 49t-47 127z" />
    <glyph glyph-name="cedilla" unicode="&#xb8;" 
d="M659 -92q142 -22 142 -163q0 -77 -63.5 -129t-163.5 -52t-168 24l28 129q46 -16 88 -16q72 0 72 51q0 39 -40 47t-79 8l-8 13l76 194h164z" />
    <glyph glyph-name="uni00B9" unicode="&#xb9;" horiz-adv-x="534" 
d="M33 1348v172l266 118h143v-720h-188v520h-4l-199 -90h-18z" />
    <glyph glyph-name="ordmasculine" unicode="&#xba;" horiz-adv-x="899" 
d="M158 401v179h579v-179h-579zM795 1028.5q0 -143.5 -93.5 -237t-251.5 -93.5t-253 95t-95 235.5t94.5 235t253.5 94.5t252 -93t93 -236.5zM307 1027q0 -93 42.5 -126t100.5 -33t99 33t41 126t-41 127t-99 34t-100.5 -34t-42.5 -127z" />
    <glyph glyph-name="guillemotright" unicode="&#xbb;" horiz-adv-x="1112" 
d="M590 541l-330 -449l-170 101l219 362l-221 360l172 99l330 -449v-24zM1042 541l-329 -449l-170 101l219 362l-221 360l172 99l329 -449v-24z" />
    <glyph glyph-name="onequarter" unicode="&#xbc;" horiz-adv-x="1546" 
d="M188 0v20l934 1373h213v-21l-934 -1372h-213zM1395 500v-191h86v-155h-86v-154h-187v154h-352v139l184 428h191l-166 -410v-2h143v191h187zM61 1102v172l267 119h143v-721h-188v520h-4l-199 -90h-19z" />
    <glyph glyph-name="onehalf" unicode="&#xbd;" horiz-adv-x="1585" 
d="M1294 474q0 104 -94 102q-47 0 -83 -26t-70 -61l-109 123q111 125 276 125q122 0 200 -62t79 -177q0 -76 -40 -130t-99 -100l-140 -108v-4h289v-156h-563v143l301 240q53 43 53 91zM188 0v20l934 1373h213v-21l-934 -1372h-213zM61 1102v172l267 119h143v-721h-188v520
h-4l-199 -90h-19z" />
    <glyph glyph-name="threequarters" unicode="&#xbe;" horiz-adv-x="1630" 
d="M274 0v20l934 1373h213v-21l-934 -1372h-213zM1481 500v-191h86v-155h-86v-154h-187v154h-352v139l184 428h191l-166 -410v-2h143v191h187zM329 813q119 0 117 76q0 35 -25 46q-26 11 -85 11h-143v158h141q92 0 92 68t-103 69q-103 0 -184 -35l-53 150q123 47 254 47
t207 -53q76 -52 76 -140t-37 -124t-78 -42v-2q135 -41 135 -180q0 -96 -75 -154t-234 -58t-266 55l49 153q93 -45 212 -45z" />
    <glyph glyph-name="questiondown" unicode="&#xbf;" horiz-adv-x="1026" 
d="M721 842q0 -78 -47 -127t-127 -49t-127 49t-47 127t47 127t127 49t127 -49t47 -127zM977 -238q-185 -198 -451 -198q-201 0 -329.5 102t-128.5 268t99.5 266.5t240.5 168.5l26 127h223l13 -265q-146 -49 -203 -95t-79.5 -86t-22.5 -79q0 -76 48 -120t136 -44t155.5 43.5
t126.5 102.5z" />
    <glyph glyph-name="Agrave" unicode="&#xc0;" horiz-adv-x="1368" 
d="M680 1102l-191 -586h388l-191 586h-6zM1362 0h-313l-93 287h-544l-95 -287h-311l512 1393h332zM406 1835h311l121 -279v-20h-263l-169 281v18z" />
    <glyph glyph-name="Aacute" unicode="&#xc1;" horiz-adv-x="1368" 
d="M680 1102l-191 -586h388l-191 586h-6zM1362 0h-313l-93 287h-544l-95 -287h-311l512 1393h332zM532 1536v20l121 279h312v-18l-170 -281h-263z" />
    <glyph glyph-name="Acircumflex" unicode="&#xc2;" horiz-adv-x="1368" 
d="M680 1102l-191 -586h388l-191 586h-6zM1362 0h-313l-93 287h-544l-95 -287h-311l512 1393h332zM1042 1536h-229l-129 162l-127 -162h-229v20l227 279h260l227 -279v-20z" />
    <glyph glyph-name="Atilde" unicode="&#xc3;" horiz-adv-x="1368" 
d="M680 1102l-191 -586h388l-191 586h-6zM1362 0h-313l-93 287h-544l-95 -287h-311l512 1393h332zM520 1630q-80 0 -137 -71l-55 143q33 57 91 96t128 39t160 -46q35 -17 69 -31t74 -15q84 0 137 70l55 -140q-35 -65 -95 -101q-59 -36 -125 -36t-162 46t-140 46z" />
    <glyph glyph-name="Adieresis" unicode="&#xc4;" horiz-adv-x="1368" 
d="M680 1102l-191 -586h388l-191 586h-6zM1362 0h-313l-93 287h-544l-95 -287h-311l512 1393h332zM791 1677q0 66 44 109q45 43 117 43t116 -43t44 -109q0 -67 -44 -109t-117 -42t-117 42t-43 109zM256 1677q0 66 44 109t117 43t117 -43t44 -109q0 -67 -44 -109t-117 -42
t-117 42t-44 109z" />
    <glyph glyph-name="Aring" unicode="&#xc5;" horiz-adv-x="1363" 
d="M704.5 1458q61.5 0 61.5 80q0 37 -22.5 58.5t-61.5 21.5t-62.5 -21.5t-23.5 -59.5t23.5 -58.5t85 -20.5zM678 1104l-191 -586h387l-190 586h-6zM432 1538q0 106 69.5 167.5t180.5 61.5t179.5 -61t68.5 -168q0 -55 -28 -104.5t-68 -77.5l526 -1354h-313l-93 287h-544
l-95 -287h-311l524 1352q-41 29 -68.5 78t-27.5 106z" />
    <glyph glyph-name="AE" unicode="&#xc6;" horiz-adv-x="1961" 
d="M915 516v598h-6l-342 -598h348zM1849 1393v-238h-649v-334h582v-237h-582v-346h655v-238h-940v287h-479l-170 -287h-305v20l825 1373h1063z" />
    <glyph glyph-name="Ccedilla" unicode="&#xc7;" horiz-adv-x="1241" 
d="M774 -92q141 -21 141 -163q0 -77 -63.5 -129t-162.5 -52t-169 24l29 129q46 -16 88 -16q72 0 72 51q0 39 -40 47t-79 8l-8 13l61 160q-260 35 -403.5 227t-143.5 506t176.5 512t501.5 198q203 0 395 -90l-75 -225q-162 72 -332 72t-269.5 -130.5t-99.5 -413t144.5 -353
t236.5 -70.5q158 0 320 72l75 -226q-180 -82 -368 -90z" />
    <glyph glyph-name="Egrave" unicode="&#xc8;" 
d="M1096 1393v-238h-650v-334h582v-237h-582v-346h656v-238h-940v1393h934zM348 1835h311l121 -279v-20h-262l-170 281v18z" />
    <glyph glyph-name="Eacute" unicode="&#xc9;" 
d="M1096 1393v-238h-650v-334h582v-237h-582v-346h656v-238h-940v1393h934zM504 1536v20l121 279h311v-18l-170 -281h-262z" />
    <glyph glyph-name="Ecircumflex" unicode="&#xca;" 
d="M1096 1393v-238h-650v-334h582v-237h-582v-346h656v-238h-940v1393h934zM991 1536h-229l-129 162l-127 -162h-230v20l228 279h260l227 -279v-20z" />
    <glyph glyph-name="Edieresis" unicode="&#xcb;" 
d="M1096 1393v-238h-650v-334h582v-237h-582v-346h656v-238h-940v1393h934zM731 1677q0 66 44 109t117 43t117 -43t44 -109q0 -67 -44 -109t-117 -42t-117 42t-44 109zM197 1677q0 66 44 109q45 43 117 43t116 -43t44 -109q0 -67 -44 -109t-117 -42t-117 42t-43 109z" />
    <glyph glyph-name="Igrave" unicode="&#xcc;" horiz-adv-x="608" 
d="M446 0h-284v1393h284v-1393zM14 1835h312l120 -279v-20h-262l-170 281v18z" />
    <glyph glyph-name="Iacute" unicode="&#xcd;" horiz-adv-x="608" 
d="M446 0h-284v1393h284v-1393zM174 1536v20l121 279h311v-18l-170 -281h-262z" />
    <glyph glyph-name="Icircumflex" unicode="&#xce;" horiz-adv-x="608" 
d="M446 0h-284v1393h284v-1393zM664 1536h-230l-129 162l-127 -162h-229v20l227 279h260l228 -279v-20z" />
    <glyph glyph-name="Idieresis" unicode="&#xcf;" horiz-adv-x="608" 
d="M446 0h-284v1393h284v-1393zM410 1677q0 66 44 109t116 43t117 -43q44 -43 44 -109q0 -67 -44 -109t-117 -42q-72 0 -116 42t-44 109zM-125 1677q0 66 44 109t117 43t117 -43t44 -109q0 -67 -44 -109t-117 -42t-117 42t-44 109z" />
    <glyph glyph-name="Eth" unicode="&#xd0;" horiz-adv-x="1443" 
d="M602 238q259 0 332.5 84t91.5 170t18 204.5t-18 204.5t-91.5 170t-332.5 84h-125v-350h232v-238h-232v-329h125zM193 567h-99v238h99v588h436q559 0 635.5 -264.5t76.5 -433.5q0 -348 -165.5 -521.5t-546.5 -173.5h-436v567z" />
    <glyph glyph-name="Ntilde" unicode="&#xd1;" horiz-adv-x="1507" 
d="M1061 432v961h285v-1393h-302l-591 961h-7v-961h-284v1393h301l592 -961h6zM580 1630q-79 0 -138 -71l-55 143q33 57 91 96t128 39t160 -46q35 -17 69 -31t74 -15q83 0 138 70l55 -140q-35 -65 -95 -101t-125 -36t-162 46t-140 46z" />
    <glyph glyph-name="Ograve" unicode="&#xd2;" horiz-adv-x="1533" 
d="M96 696q0 322 169 525q169 202 503 202q333 0 508 -211q162 -194 162 -515t-168 -524q-168 -202 -502 -203q-333 -1 -503 201q-169 203 -169 525zM767 213q369 0 374 483q0 345 -199 447q-72 37 -175 37t-174 -37q-200 -104 -200 -447q0 -345 200 -446q71 -37 174 -37z
M508 1835h311l121 -279v-20h-262l-170 281v18z" />
    <glyph glyph-name="Oacute" unicode="&#xd3;" horiz-adv-x="1533" 
d="M96 696q0 322 169 525q169 202 503 202q333 0 508 -211q162 -194 162 -515t-168 -524q-168 -202 -502 -203q-333 -1 -503 201q-169 203 -169 525zM767 213q369 0 374 483q0 345 -199 447q-72 37 -175 37t-174 -37q-200 -104 -200 -447q0 -345 200 -446q71 -37 174 -37z
M631 1536v20l121 279h311v-18l-170 -281h-262z" />
    <glyph glyph-name="Ocircumflex" unicode="&#xd4;" horiz-adv-x="1533" 
d="M96 696q0 322 169 525q169 202 503 202q333 0 508 -211q162 -194 162 -515t-168 -524q-168 -202 -502 -203q-333 -1 -503 201q-169 203 -169 525zM767 213q369 0 374 483q0 345 -199 447q-72 37 -175 37t-174 -37q-200 -104 -200 -447q0 -345 200 -446q71 -37 174 -37z
M1139 1536h-230l-129 162l-127 -162h-229v20l227 279h260l228 -279v-20z" />
    <glyph glyph-name="Otilde" unicode="&#xd5;" horiz-adv-x="1533" 
d="M96 696q0 322 169 525q169 202 503 202q333 0 508 -211q162 -194 162 -515t-168 -524q-168 -202 -502 -203q-333 -1 -503 201q-169 203 -169 525zM767 213q369 0 374 483q0 345 -199 447q-72 37 -175 37t-174 -37q-200 -104 -200 -447q0 -345 200 -446q71 -37 174 -37z
M608 1630q-80 0 -137 -71l-55 143q33 57 91 96t128 39t160 -46q35 -17 69 -31t74 -15q84 0 137 70l55 -140q-35 -65 -95 -101q-59 -36 -125 -36t-162 46t-140 46z" />
    <glyph glyph-name="Odieresis" unicode="&#xd6;" horiz-adv-x="1533" 
d="M96 696q0 322 169 525q169 202 503 202q333 0 508 -211q162 -194 162 -515t-168 -524q-168 -202 -502 -203q-333 -1 -503 201q-169 203 -169 525zM767 213q369 0 374 483q0 345 -199 447q-72 37 -175 37t-174 -37q-200 -104 -200 -447q0 -345 200 -446q71 -37 174 -37z
M879 1677q0 66 44 109q45 43 117 43t116 -43t44 -109q0 -67 -44 -109t-117 -42t-117 42t-43 109zM344 1677q0 66 44 109t117 43t117 -43t44 -109q0 -67 -44 -109t-117 -42t-117 42t-44 109z" />
    <glyph glyph-name="multiply" unicode="&#xd7;" 
d="M602 705l340 337l150 -149l-340 -338l340 -338l-150 -149l-340 338l-336 -338l-149 149l336 338l-336 338l149 149z" />
    <glyph glyph-name="Oslash" unicode="&#xd8;" horiz-adv-x="1533" 
d="M766 1180q-192 0 -282.5 -129.5t-90.5 -332.5t51 -310l500 733q-76 39 -178 39zM1005.5 282.5q135.5 69.5 135.5 395.5q0 205 -64 326l-506 -744q84 -47 191 -47q108 0 243.5 69.5zM276 160q-180 192 -180 525t168.5 535.5t503.5 202.5q186 0 324 -67l71 108l158 -106
l-78 -113q195 -199 195 -534t-169 -538.5t-501 -203.5q-190 0 -342 76l-72 -111l-159 105z" />
    <glyph glyph-name="Ugrave" unicode="&#xd9;" horiz-adv-x="1445" 
d="M723 -31q-578 0 -578 602v822h285v-822q0 -254 157 -330q56 -28 136 -28q146 0 218 93t75 265v822h284v-822q0 -441 -317 -561q-109 -41 -260 -41zM440 1835h312l120 -279v-20h-262l-170 281v18z" />
    <glyph glyph-name="Uacute" unicode="&#xda;" horiz-adv-x="1445" 
d="M723 -31q-578 0 -578 602v822h285v-822q0 -254 157 -330q56 -28 136 -28q146 0 218 93t75 265v822h284v-822q0 -441 -317 -561q-109 -41 -260 -41zM590 1536v20l121 279h311v-18l-170 -281h-262z" />
    <glyph glyph-name="Ucircumflex" unicode="&#xdb;" horiz-adv-x="1445" 
d="M723 -31q-578 0 -578 602v822h285v-822q0 -254 157 -330q56 -28 136 -28q146 0 218 93t75 265v822h284v-822q0 -441 -317 -561q-109 -41 -260 -41zM1079 1536h-229l-129 162l-127 -162h-229v20l227 279h260l227 -279v-20z" />
    <glyph glyph-name="Udieresis" unicode="&#xdc;" horiz-adv-x="1445" 
d="M723 -31q-578 0 -578 602v822h285v-822q0 -254 157 -330q56 -28 136 -28q146 0 218 93t75 265v822h284v-822q0 -441 -317 -561q-109 -41 -260 -41zM827 1677q0 66 44 109t117 43t117 -43t44 -109q0 -67 -44 -109t-117 -42t-117 42t-44 109zM293 1677q0 66 44 109t117 43
q72 0 116 -43t44 -109q0 -67 -44 -109t-116 -42t-117 42q-44 42 -44 109z" />
    <glyph glyph-name="Yacute" unicode="&#xdd;" horiz-adv-x="1236" 
d="M1239 1393v-21l-479 -811v-561h-285v561l-481 811v21h311l309 -574h4l310 574h311zM477 1536v20l121 279h311v-18l-170 -281h-262z" />
    <glyph glyph-name="Thorn" unicode="&#xde;" horiz-adv-x="1234" 
d="M864 777q0 161 -192 161h-226v-449h226q104 0 148 63.5t44 224.5zM162 0v1393h284v-217h246q241 0 355 -124.5t114 -394.5t-172 -337.5t-297 -67.5h-246v-252h-284z" />
    <glyph glyph-name="germandbls" unicode="&#xdf;" horiz-adv-x="1286" 
d="M928 420q0 211 -273 211h-55v211h53q78 0 123 48t45 138t-53.5 139.5t-149.5 49.5t-154 -62.5t-58 -212.5v-942h-277v936q0 247 138.5 377.5t359.5 130.5t349 -104.5t128 -288.5q0 -214 -162 -283v-4q185 -65 226.5 -177t41.5 -188q0 -430 -536 -430q-75 0 -113 8v226
q40 -6 113 -6q131 0 192.5 54t61.5 169z" />
    <glyph glyph-name="agrave" unicode="&#xe0;" horiz-adv-x="1112" 
d="M582 426q-252 0 -252 -120t131 -120q53 0 118 18t107 50v172h-104zM534 1018q214 0 318 -104t104 -296v-403q0 -23 6 -30t27 -7h72v-188q-74 -13 -148 -14q-136 -1 -192 116h-4q-149 -119 -317 -121q-166 -2 -250 86t-84 239t114 230q114 78 373 78h133v45
q0 134 -168 142q-171 0 -328 -72l-65 211q196 88 409 88zM285 1460h290l162 -278v-21h-241l-211 281v18z" />
    <glyph glyph-name="aacute" unicode="&#xe1;" horiz-adv-x="1112" 
d="M582 426q-252 0 -252 -120t131 -120q53 0 118 18t107 50v172h-104zM534 1018q214 0 318 -104t104 -296v-403q0 -23 6 -30t27 -7h72v-188q-74 -13 -148 -14q-136 -1 -192 116h-4q-149 -119 -317 -121q-166 -2 -250 86t-84 239t114 230q114 78 373 78h133v45
q0 134 -168 142q-171 0 -328 -72l-65 211q196 88 409 88zM436 1161v21l162 278h291v-18l-211 -281h-242z" />
    <glyph glyph-name="acircumflex" unicode="&#xe2;" horiz-adv-x="1112" 
d="M582 426q-252 0 -252 -120t131 -120q53 0 118 18t107 50v172h-104zM534 1018q214 0 318 -104t104 -296v-403q0 -23 6 -30t27 -7h72v-188q-74 -13 -148 -14q-136 -1 -192 116h-4q-149 -119 -317 -121q-166 -2 -250 86t-84 239t114 230q114 78 373 78h133v45
q0 134 -168 142q-171 0 -328 -72l-65 211q196 88 409 88zM932 1161h-230l-108 142l-107 -142h-229v21l186 278h301l187 -278v-21z" />
    <glyph glyph-name="atilde" unicode="&#xe3;" horiz-adv-x="1112" 
d="M582 426q-252 0 -252 -120t131 -120q53 0 118 18t107 50v172h-104zM534 1018q214 0 318 -104t104 -296v-403q0 -23 6 -30t27 -7h72v-188q-74 -13 -148 -14q-136 -1 -192 116h-4q-149 -119 -317 -121q-166 -2 -250 86t-84 239t114 230q114 78 373 78h133v45
q0 134 -168 142q-171 0 -328 -72l-65 211q196 88 409 88zM327 1421q58 39 129 39t158 -46q35 -18 69 -32t75 -14q83 0 137 70l55 -140q-35 -66 -95 -102q-61 -36 -113 -35q-71 0 -171 46t-143 46q-80 0 -137 -71l-55 143q33 57 91 96z" />
    <glyph glyph-name="adieresis" unicode="&#xe4;" horiz-adv-x="1112" 
d="M582 426q-252 0 -252 -120t131 -120q53 0 118 18t107 50v172h-104zM534 1018q214 0 318 -104t104 -296v-403q0 -23 6 -30t27 -7h72v-188q-74 -13 -148 -14q-136 -1 -192 116h-4q-149 -119 -317 -121q-166 -2 -250 86t-84 239t114 230q114 78 373 78h133v45
q0 134 -168 142q-171 0 -328 -72l-65 211q196 88 409 88zM657 1311q0 67 44 109t117 42t117 -43t44 -109t-44 -108q-44 -43 -117 -43t-117 43t-44 109zM207 1311q0 67 44 109t117 42q72 0 116 -43t44 -109t-44 -108q-44 -43 -116 -43t-117 43q-44 43 -44 109z" />
    <glyph glyph-name="aring" unicode="&#xe5;" horiz-adv-x="1112" 
d="M582 426q-252 0 -252 -120t131 -120q53 0 118 18t107 50v172h-104zM534 1018q214 0 318 -104t104 -296v-403q0 -23 6 -30t27 -7h72v-188q-74 -13 -148 -14q-136 -1 -192 116h-4q-149 -119 -317 -121q-166 -2 -250 86t-84 239t114 230q114 78 373 78h133v45
q0 134 -168 142q-171 0 -328 -72l-65 211q196 88 409 88zM346 1316q0 108 70 168q70 62 180 62t180 -61q68 -61 68 -169t-69 -169t-179 -61t-180 60q-70 62 -70 170zM596 1237q84 0 84 80q0 37 -23 59t-61 21q-38 1 -62 -21t-24 -60t24 -58t62 -21z" />
    <glyph glyph-name="ae" unicode="&#xe6;" horiz-adv-x="1701" 
d="M516 422q-192 0 -192 -123q0 -117 129 -117q94 0 168.5 67t74.5 173h-180zM1376 616q0 201 -200 201q-98 0 -151.5 -67t-57.5 -164h407q2 10 2 30zM971 414q21 -224 255 -224q126 0 292 62l63 -199q-178 -84 -389 -84q-135 0 -223 49.5t-152 126.5q-77 -82 -138 -113.5
t-123 -47t-183.5 -15.5t-214 86.5t-92.5 225.5q0 170 118.5 244.5t323.5 74.5h184v49q0 93 -55.5 117.5t-132.5 24.5q-157 0 -314 -72l-65 211q196 88 404 88q207 0 323 -133q128 133 340 133t324 -119t112 -307q0 -86 -14 -178h-643z" />
    <glyph glyph-name="ccedilla" unicode="&#xe7;" horiz-adv-x="980" 
d="M610 -92q142 -22 142 -163q0 -77 -63.5 -129t-163.5 -52t-169 24l29 129q46 -16 88 -16q72 0 72 51q0 39 -40 47t-79 8l-8 13l61 162q-191 32 -296 169t-105 359t138 365t386 143q152 0 307 -60l-55 -210q-132 43 -197 43t-117.5 -16.5t-92 -51.5t-63.5 -92.5t-24 -173
t81.5 -188t185.5 -72.5t227 43l55 -211q-146 -52 -272 -58z" />
    <glyph glyph-name="egrave" unicode="&#xe8;" horiz-adv-x="1103" 
d="M778 616q0 201 -207 201q-102 0 -157 -72q-52 -63 -58 -159h420q2 8 2 15v15zM983 53q-178 -84 -413 -84t-365 150q-129 149 -129 373q0 223 130 375q130 151 359 151t348 -120t117 -306q0 -84 -14 -178h-660q12 -161 149 -208q44 -15 99 -16q151 0 316 62zM287 1460h291
l161 -278v-21h-241l-211 281v18z" />
    <glyph glyph-name="eacute" unicode="&#xe9;" horiz-adv-x="1103" 
d="M778 616q0 201 -207 201q-102 0 -157 -72q-52 -63 -58 -159h420q2 8 2 15v15zM983 53q-178 -84 -413 -84t-365 150q-129 149 -129 373q0 223 130 375q130 151 359 151t348 -120t117 -306q0 -84 -14 -178h-660q12 -161 149 -208q44 -15 99 -16q151 0 316 62zM455 1161v21
l161 278h291v-18l-211 -281h-241z" />
    <glyph glyph-name="ecircumflex" unicode="&#xea;" horiz-adv-x="1103" 
d="M778 616q0 201 -207 201q-102 0 -157 -72q-52 -63 -58 -159h420q2 8 2 15v15zM983 53q-178 -84 -413 -84t-365 150q-129 149 -129 373q0 223 130 375q130 151 359 151t348 -120t117 -306q0 -84 -14 -178h-660q12 -161 149 -208q44 -15 99 -16q151 0 316 62zM920 1161
h-230l-108 142l-107 -142h-229v21l186 278h301l187 -278v-21z" />
    <glyph glyph-name="edieresis" unicode="&#xeb;" horiz-adv-x="1103" 
d="M778 616q0 201 -207 201q-102 0 -157 -72q-52 -63 -58 -159h420q2 8 2 15v15zM983 53q-178 -84 -413 -84t-365 150q-129 149 -129 373q0 223 130 375q130 151 359 151t348 -120t117 -306q0 -84 -14 -178h-660q12 -161 149 -208q44 -15 99 -16q151 0 316 62zM647 1311
q0 67 44 109t117 42t117 -43t44 -109t-44 -108q-44 -43 -117 -43t-117 43t-44 109zM197 1311q0 67 44 109q45 42 117 42t116 -43t44 -109t-44 -108q-44 -43 -117 -43t-117 43t-43 109z" />
    <glyph glyph-name="igrave" unicode="&#xec;" horiz-adv-x="534" 
d="M129 0v987h277v-987h-277zM-51 1460h291l161 -278v-21h-241l-211 281v18z" />
    <glyph glyph-name="iacute" unicode="&#xed;" horiz-adv-x="534" 
d="M129 0v987h277v-987h-277zM139 1161v21l162 278h291v-18l-211 -281h-242z" />
    <glyph glyph-name="icircumflex" unicode="&#xee;" horiz-adv-x="534" 
d="M129 0v987h277v-987h-277zM606 1161h-229l-109 142l-106 -142h-230v21l187 278h301l186 -278v-21z" />
    <glyph glyph-name="idieresis" unicode="&#xef;" horiz-adv-x="534" 
d="M129 0v987h277v-987h-277zM334 1311q0 67 44 109t117 42t117 -43t43 -109q0 -66 -44 -108q-45 -43 -117 -43t-116 43t-44 109zM-117 1311q0 67 44 109t117 42t117 -43t44 -109t-44 -108q-44 -43 -117 -43t-117 43t-44 109z" />
    <glyph glyph-name="eth" unicode="&#xf0;" horiz-adv-x="1214" 
d="M854 483q0 273 -250 273q-123 0 -184.5 -71t-61.5 -202q0 -206 92.5 -245t153.5 -39q127 0 188.5 75.5t61.5 208.5zM1135 532q0 -259 -136.5 -411t-391.5 -152q-256 0 -392.5 145t-136.5 370t125.5 363t326.5 138q94 0 154.5 -27.5t81.5 -42.5l2 5q-66 128 -147 215
l-238 -66l-43 148l170 47q-33 35 -70 76.5t-71 72.5v21h272l82 -97l203 47l39 -147l-127 -35q127 -162 212 -347.5t85 -322.5z" />
    <glyph glyph-name="ntilde" unicode="&#xf1;" horiz-adv-x="1189" 
d="M1071 623v-623h-276v594q0 195 -177 197q-107 0 -212 -84v-707h-277v987h221l37 -96h4q141 127 316 127q174 0 269 -109t95 -286zM436 1253q-80 0 -137 -71l-55 143q33 57 91 96t128 39t160 -46q35 -18 69 -32t74 -14q83 0 137 70l55 -140q-35 -66 -95 -102t-123 -35
q-63 0 -161 46q-99 46 -143 46z" />
    <glyph glyph-name="ograve" unicode="&#xf2;" horiz-adv-x="1193" 
d="M979 117q-139 -149 -383 -148q-243 0 -381 149q-139 149 -139 374t139 376q139 150 381 150q243 0 390 -155q132 -140 132 -368q0 -229 -139 -378zM358 494q0 -143 64 -220t174 -77q172 0 222 167q17 56 18 130q0 144 -63 220q-63 75 -177 77q-169 0 -220 -167
q-18 -56 -18 -130zM274 1460h291l162 -278v-21h-242l-211 281v18z" />
    <glyph glyph-name="oacute" unicode="&#xf3;" horiz-adv-x="1193" 
d="M979 117q-139 -149 -383 -148q-243 0 -381 149q-139 149 -139 374t139 376q139 150 381 150q243 0 390 -155q132 -140 132 -368q0 -229 -139 -378zM358 494q0 -143 64 -220t174 -77q172 0 222 167q17 56 18 130q0 144 -63 220q-63 75 -177 77q-169 0 -220 -167
q-18 -56 -18 -130zM473 1161v21l162 278h291v-18l-211 -281h-242z" />
    <glyph glyph-name="ocircumflex" unicode="&#xf4;" horiz-adv-x="1193" 
d="M979 117q-139 -149 -383 -148q-243 0 -381 149q-139 149 -139 374t139 376q139 150 381 150q243 0 390 -155q132 -140 132 -368q0 -229 -139 -378zM358 494q0 -143 64 -220t174 -77q172 0 222 167q17 56 18 130q0 144 -63 220q-63 75 -177 77q-169 0 -220 -167
q-18 -56 -18 -130zM934 1161h-229l-109 142l-107 -142h-229v21l186 278h302l186 -278v-21z" />
    <glyph glyph-name="otilde" unicode="&#xf5;" horiz-adv-x="1193" 
d="M979 117q-139 -149 -383 -148q-243 0 -381 149q-139 149 -139 374t139 376q139 150 381 150q243 0 390 -155q132 -140 132 -368q0 -229 -139 -378zM358 494q0 -143 64 -220t174 -77q172 0 222 167q17 56 18 130q0 144 -63 220q-63 75 -177 77q-169 0 -220 -167
q-18 -56 -18 -130zM432 1253q-80 0 -137 -71l-55 143q33 57 91 96t129 39t158 -46q35 -18 69 -32t75 -14q83 0 137 70l55 -140q-35 -66 -95 -102q-61 -36 -113 -35q-71 0 -171 46t-143 46z" />
    <glyph glyph-name="odieresis" unicode="&#xf6;" horiz-adv-x="1193" 
d="M979 117q-139 -149 -383 -148q-243 0 -381 149q-139 149 -139 374t139 376q139 150 381 150q243 0 390 -155q132 -140 132 -368q0 -229 -139 -378zM358 494q0 -143 64 -220t174 -77q172 0 222 167q17 56 18 130q0 144 -63 220q-63 75 -177 77q-169 0 -220 -167
q-18 -56 -18 -130zM664 1311q0 67 44 109t116 42t117 -43q44 -43 44 -109t-44 -108q-44 -43 -117 -43q-72 0 -116 43t-44 109zM213 1311q0 67 44 109t117 42q72 0 116 -43t44 -109t-44 -108q-44 -43 -116 -43t-117 43q-44 43 -44 109z" />
    <glyph glyph-name="divide" unicode="&#xf7;" 
d="M430 977q0 78 47 127t127 49t127 -49t47 -127t-47 -127t-127 -49t-127 49t-47 127zM430 145.5q0 77.5 47 127t127 49.5t127 -49.5t47 -127t-47 -127t-127 -49.5t-127 49.5t-47 127zM1126 662v-211h-1044v211h1044z" />
    <glyph glyph-name="oslash" unicode="&#xf8;" horiz-adv-x="1193" 
d="M344 483q0 -87 18 -139l357 440q-58 23 -116 23q-119 0 -189 -82.5t-70 -241.5zM584 180q127 0 196.5 82.5t69.5 205.5q0 124 -21 179l-360 -444q51 -23 115 -23zM193 139q-117 143 -117 362q0 220 138 368.5t382 148.5q152 0 260 -57l72 90l141 -111l-72 -90
q121 -148 121 -367t-138.5 -366.5t-383.5 -147.5q-150 0 -264 60l-76 -99l-137 117z" />
    <glyph glyph-name="ugrave" unicode="&#xf9;" horiz-adv-x="1177" 
d="M571 197q98 0 201 84v706h277v-987h-224l-37 96h-4q-138 -124 -310 -126q-173 -1 -264 108t-91 287v622h276v-594q0 -96 39 -146t137 -50zM262 1460h291l162 -278v-21h-242l-211 281v18z" />
    <glyph glyph-name="uacute" unicode="&#xfa;" horiz-adv-x="1177" 
d="M571 197q98 0 201 84v706h277v-987h-224l-37 96h-4q-138 -124 -310 -126q-173 -1 -264 108t-91 287v622h276v-594q0 -96 39 -146t137 -50zM469 1161v21l162 278h291v-18l-211 -281h-242z" />
    <glyph glyph-name="ucircumflex" unicode="&#xfb;" horiz-adv-x="1177" 
d="M571 197q98 0 201 84v706h277v-987h-224l-37 96h-4q-138 -124 -310 -126q-173 -1 -264 108t-91 287v622h276v-594q0 -96 39 -146t137 -50zM924 1161h-230l-108 142l-107 -142h-229v21l186 278h301l187 -278v-21z" />
    <glyph glyph-name="udieresis" unicode="&#xfc;" horiz-adv-x="1177" 
d="M571 197q98 0 201 84v706h277v-987h-224l-37 96h-4q-138 -124 -310 -126q-173 -1 -264 108t-91 287v622h276v-594q0 -96 39 -146t137 -50zM659 1311q0 67 44 109t117 42t117 -43t44 -109t-44 -108q-44 -43 -117 -43t-117 43t-44 109zM209 1311q0 67 44 109t117 42
q72 0 116 -43t44 -109t-44 -108q-44 -43 -116 -43t-117 43q-44 43 -44 109z" />
    <glyph glyph-name="yacute" unicode="&#xfd;" horiz-adv-x="1085" 
d="M208 -209q66 0 106 25t63 84l41 110l-398 957v20h287l238 -672h6l225 672h287v-20l-424 -1088q-125 -315 -395 -315q-83 0 -162 18v219q59 -10 126 -10zM420 1161v21l162 278h290v-18l-210 -281h-242z" />
    <glyph glyph-name="thorn" unicode="&#xfe;" horiz-adv-x="1200" 
d="M129 1434h277v-519h4q45 33 111.5 68t170.5 35q201 0 314.5 -147t113.5 -375t-112.5 -377.5t-317.5 -149.5q-104 0 -168.5 35t-111.5 68h-4v-478h-277v1840zM840 531q0 103 -59.5 181.5t-168.5 78.5q-110 0 -206 -60v-475q92 -59 198 -59q176 0 206 115.5t30 218.5z" />
    <glyph glyph-name="ydieresis" unicode="&#xff;" horiz-adv-x="1085" 
d="M208 -209q66 0 106 25t63 84l41 110l-398 957v20h287l238 -672h6l225 672h287v-20l-424 -1088q-125 -315 -395 -315q-83 0 -162 18v219q59 -10 126 -10zM614 1311q0 67 44 109t117 42t117 -43t44 -109t-44 -108q-44 -43 -117 -43t-117 43t-44 109zM164 1311q0 67 44 109
t117 42t117 -43t43 -109q0 -66 -44 -108q-45 -43 -117 -43t-116 43t-44 109z" />
    <glyph glyph-name="Amacron" unicode="&#x100;" horiz-adv-x="1368" 
d="M680 1102l-191 -586h388l-191 586h-6zM1362 0h-313l-93 287h-544l-95 -287h-311l512 1393h332zM387 1554v211h594v-211h-594z" />
    <glyph glyph-name="amacron" unicode="&#x101;" horiz-adv-x="1112" 
d="M582 426q-252 0 -252 -120t131 -120q53 0 118 18t107 50v172h-104zM534 1018q214 0 318 -104t104 -296v-403q0 -23 6 -30t27 -7h72v-188q-74 -13 -148 -14q-136 -1 -192 116h-4q-149 -119 -317 -121q-166 -2 -250 86t-84 239t114 230q114 78 373 78h133v45
q0 134 -168 142q-171 0 -328 -72l-65 211q196 88 409 88zM295 1186v211h594v-211h-594z" />
    <glyph glyph-name="Abreve" unicode="&#x102;" horiz-adv-x="1368" 
d="M680 1102l-191 -586h388l-191 586h-6zM1362 0h-313l-93 287h-544l-95 -287h-311l512 1393h332zM687 1757q178 0 267 70l86 -131q-107 -158 -356 -158t-356 158l86 131q95 -70 273 -70z" />
    <glyph glyph-name="abreve" unicode="&#x103;" horiz-adv-x="1112" 
d="M582 426q-252 0 -252 -120t131 -120q53 0 118 18t107 50v172h-104zM534 1018q214 0 318 -104t104 -296v-403q0 -23 6 -30t27 -7h72v-188q-74 -13 -148 -14q-136 -1 -192 116h-4q-149 -119 -317 -121q-166 -2 -250 86t-84 239t114 230q114 78 373 78h133v45
q0 134 -168 142q-171 0 -328 -72l-65 211q196 88 409 88zM596 1380q177 0 268 70l86 -131q-107 -158 -356 -158t-356 158l86 131q95 -70 272 -70z" />
    <glyph glyph-name="Aogonek" unicode="&#x104;" horiz-adv-x="1368" 
d="M680 1102l-191 -586h388l-191 586h-6zM1335 -385q-84 -51 -195 -51q-104 0 -168.5 58t-64.5 153q0 137 142 225l-93 287h-544l-95 -287h-311l512 1393h332l512 -1393q-124 -22 -183 -72.5t-59 -100.5t21.5 -67.5t73.5 -17.5t98 37z" />
    <glyph glyph-name="aogonek" unicode="&#x105;" horiz-adv-x="1112" 
d="M582 426q-252 0 -252 -120t131 -120q53 0 117.5 18.5t107.5 49.5v172h-104zM534 1018q213 0 317.5 -103.5t104.5 -296.5v-403q0 -23 5.5 -30t27.5 -7h72v-188q-59 -23 -125 -73t-66 -97t21.5 -62.5t73.5 -15.5t98 37l22 -164q-33 -20 -88 -35.5t-102 -15.5
q-117 0 -177.5 59.5t-60.5 141.5q0 134 144 235q-49 24 -80 92h-4q-100 -80 -186.5 -101.5t-131.5 -21.5q-166 0 -249.5 88t-83.5 239t114.5 229.5t372.5 78.5h133v45q0 114 -72.5 128t-95.5 14q-171 0 -328 -72l-65 211q196 88 409 88z" />
    <glyph glyph-name="Cacute" unicode="&#x106;" horiz-adv-x="1239" 
d="M792 -31q-343 0 -521 198q-177 198 -177 528q0 331 177 530q177 198 501 198q203 0 395 -90l-75 -225q-158 70 -330 71t-272 -129q-99 -130 -99 -351t99 -353q99 -133 271 -133t331 72l75 -226q-191 -90 -375 -90zM606 1536v20l121 279h311v-18l-170 -281h-262z" />
    <glyph glyph-name="cacute" unicode="&#x107;" horiz-adv-x="980" 
d="M78 494q0 240 136 382q138 142 388 142q152 0 307 -60l-55 -210q-285 93 -413 -25q-81 -75 -81 -229q0 -228 167 -281q50 -16 127 -16t200 43l55 -211q-159 -58 -296 -59q-138 -1 -235 36q-196 75 -265 272q-35 97 -35 216zM465 1161v21l162 278h291v-18l-211 -281h-242z
" />
    <glyph glyph-name="Ccircumflex" unicode="&#x108;" horiz-adv-x="1239" 
d="M792 -31q-343 0 -521 198q-177 198 -177 528q0 331 177 530q177 198 501 198q203 0 395 -90l-75 -225q-158 70 -330 71t-272 -129q-99 -130 -99 -351t99 -353q99 -133 271 -133t331 72l75 -226q-191 -90 -375 -90zM1116 1536h-229l-129 162l-127 -162h-230v20l228 279
h260l227 -279v-20z" />
    <glyph glyph-name="ccircumflex" unicode="&#x109;" horiz-adv-x="980" 
d="M78 494q0 240 136 382q138 142 388 142q152 0 307 -60l-55 -210q-285 93 -413 -25q-81 -75 -81 -229q0 -228 167 -281q50 -16 127 -16t200 43l55 -211q-159 -58 -296 -59q-138 -1 -235 36q-196 75 -265 272q-35 97 -35 216zM907 1161h-229l-109 142l-106 -142h-230v21
l187 278h301l186 -278v-21z" />
    <glyph glyph-name="Cdotaccent" unicode="&#x10a;" horiz-adv-x="1239" 
d="M792 -31q-343 0 -521 198q-177 198 -177 528q0 331 177 530q177 198 501 198q203 0 395 -90l-75 -225q-158 70 -330 71t-272 -129q-99 -130 -99 -351t99 -353q99 -133 271 -133t331 72l75 -226q-191 -90 -375 -90zM604 1677q0 66 44 109t117 43t117 -43t44 -109
q0 -67 -44 -109t-117 -42t-117 42t-44 109z" />
    <glyph glyph-name="cdotaccent" unicode="&#x10b;" horiz-adv-x="980" 
d="M78 494q0 240 136 382q138 142 388 142q152 0 307 -60l-55 -210q-285 93 -413 -25q-81 -75 -81 -229q0 -228 167 -281q50 -16 127 -16t200 43l55 -211q-159 -58 -296 -59q-138 -1 -235 36q-196 75 -265 272q-35 97 -35 216zM410 1311q0 67 44 109t116 42t117 -43
q44 -43 44 -109t-44 -108q-44 -43 -117 -43q-72 0 -116 43t-44 109z" />
    <glyph glyph-name="Ccaron" unicode="&#x10c;" horiz-adv-x="1239" 
d="M792 -31q-343 0 -521 198q-177 198 -177 528q0 331 177 530q177 198 501 198q203 0 395 -90l-75 -225q-158 70 -330 71t-272 -129q-99 -130 -99 -351t99 -353q99 -133 271 -133t331 72l75 -226q-191 -90 -375 -90zM397 1835h230l129 -162l127 162h229v-20l-227 -279h-260
l-228 279v20z" />
    <glyph glyph-name="ccaron" unicode="&#x10d;" horiz-adv-x="980" 
d="M78 494q0 240 136 382q138 142 388 142q152 0 307 -60l-55 -210q-285 93 -413 -25q-81 -75 -81 -229q0 -228 167 -281q50 -16 127 -16t200 43l55 -211q-159 -58 -296 -59q-138 -1 -235 36q-196 75 -265 272q-35 97 -35 216zM233 1460h230l108 -141l107 141h229v-20
l-186 -279h-301l-187 279v20z" />
    <glyph glyph-name="Dcaron" unicode="&#x10e;" horiz-adv-x="1413" 
d="M571 238q260 0 357 111q49 57 67 143q19 86 19 204q1 248 -92 354q-92 105 -351 105h-125v-917h125zM162 1393h436q558 0 675 -399q38 -130 38 -299q0 -347 -166 -521t-547 -174h-436v1393zM307 1835h230l129 -162l127 162h229v-20l-227 -279h-260l-228 279v20z" />
    <glyph glyph-name="dcaron" unicode="&#x10f;" horiz-adv-x="1202" 
d="M1073 1434v-1434h-205l-39 88h-4q-27 -18 -59 -40q-110 -77 -259 -78q-197 -2 -312 148t-115 374q0 225 113 375q113 151 319 151q102 0 169 -35t112 -68h4v519h276zM598 197q100 0 199 59v475q-95 58 -178 59q-82 1 -126 -21q-128 -64 -129 -275q-2 -211 129 -276
q44 -22 105 -21zM1483 1393v-21l-121 -319h-207v20l51 320h277z" />
    <glyph glyph-name="Dcroat" unicode="&#x110;" horiz-adv-x="1443" 
d="M602 238q259 0 350 105q92 105 92 353q0 119 -18 205t-68 142q-99 112 -356 112h-125v-350h232v-238h-232v-329h125zM193 567h-99v238h99v588h436q558 0 675 -399q38 -130 38 -299q-1 -349 -167 -522q-165 -173 -546 -173h-436v567z" />
    <glyph glyph-name="dcroat" unicode="&#x111;" horiz-adv-x="1202" 
d="M618 791q-81 0 -125 -21.5t-74 -60.5t-43.5 -94.5t-13.5 -159t60.5 -181t168.5 -77.5q109 0 206 59v475q-98 60 -179 60zM1073 1108v-1108h-205l-39 88h-4q-27 -18 -58.5 -39.5t-96 -50.5t-164.5 -29q-197 0 -311.5 149t-114.5 376q0 228 114.5 376t317.5 148
q102 0 169 -35t112 -68h4v193h-215v211h215v115h276v-115h103v-211h-103z" />
    <glyph glyph-name="Emacron" unicode="&#x112;" 
d="M1096 1393v-238h-650v-334h582v-237h-582v-346h656v-238h-940v1393h934zM338 1554v211h594v-211h-594z" />
    <glyph glyph-name="emacron" unicode="&#x113;" horiz-adv-x="1103" 
d="M778 616q0 201 -207 201q-102 0 -157 -72q-52 -63 -58 -159h420q2 8 2 15v15zM983 53q-178 -84 -413 -84t-365 150q-129 149 -129 373q0 223 130 375q130 151 359 151t348 -120t117 -306q0 -84 -14 -178h-660q12 -161 149 -208q44 -15 99 -16q151 0 316 62zM285 1186v211
h594v-211h-594z" />
    <glyph glyph-name="Ebreve" unicode="&#x114;" 
d="M1096 1393v-238h-650v-334h582v-237h-582v-346h656v-238h-940v1393h934zM1001 1696q-107 -158 -356 -158t-356 158l86 131q95 -70 273 -70t267 70z" />
    <glyph glyph-name="ebreve" unicode="&#x115;" horiz-adv-x="1103" 
d="M778 616q0 201 -207 201q-102 0 -157 -72q-52 -63 -58 -159h420q2 8 2 15v15zM983 53q-178 -84 -413 -84t-365 150q-129 149 -129 373q0 223 130 375q130 151 359 151t348 -120t117 -306q0 -84 -14 -178h-660q12 -161 149 -208q44 -15 99 -16q151 0 316 62zM948 1319
q-107 -158 -356 -158t-356 158l86 131q95 -70 272 -70t268 70z" />
    <glyph glyph-name="Edotaccent" unicode="&#x116;" 
d="M1096 1393v-238h-650v-334h582v-237h-582v-346h656v-238h-940v1393h934zM483 1677q0 66 44 109t117 43t117 -43t44 -109q0 -67 -44 -109t-117 -42t-117 42t-44 109z" />
    <glyph glyph-name="edotaccent" unicode="&#x117;" horiz-adv-x="1103" 
d="M778 616q0 201 -207 201q-102 0 -157 -72q-52 -63 -58 -159h420q2 8 2 15v15zM983 53q-178 -84 -413 -84t-365 150q-129 149 -129 373q0 223 130 375q130 151 359 151t348 -120t117 -306q0 -84 -14 -178h-660q12 -161 149 -208q44 -15 99 -16q151 0 316 62zM422 1311
q0 67 44 109t117 42t117 -43t43 -109q0 -66 -44 -108q-45 -43 -117 -43t-116 43t-44 109z" />
    <glyph glyph-name="Eogonek" unicode="&#x118;" 
d="M936 -188q0 -70 95 -70q52 0 97 37l23 -164q-84 -51 -195 -51q-104 0 -168.5 58t-64.5 153q0 126 160 225h-721v1393h934v-238h-650v-334h582v-237h-582v-346h656v-238q-102 -40 -134 -97t-32 -91z" />
    <glyph glyph-name="eogonek" unicode="&#x119;" horiz-adv-x="1103" 
d="M778 616q0 201 -207 201q-99 0 -155 -68.5t-60 -162.5h420q2 8 2 10v20zM624 -31h-40q-249 0 -378.5 149.5t-129.5 374.5q0 226 130.5 375.5t359.5 149.5t346.5 -118.5t117.5 -307.5q0 -87 -14 -178h-660q12 -160 102.5 -192t145.5 -32q151 0 316 62l63 -199
q-144 -72 -187.5 -115.5t-43.5 -103.5q0 -92 84 -92q64 0 108 37l23 -164q-33 -20 -88.5 -35.5t-107.5 -15.5q-103 0 -167.5 57.5t-64.5 155.5q0 99 100 190v4q-12 -2 -15 -2z" />
    <glyph glyph-name="Ecaron" unicode="&#x11a;" 
d="M1096 1393v-238h-650v-334h582v-237h-582v-346h656v-238h-940v1393h934zM291 1835h229l129 -162l127 162h230v-20l-228 -279h-260l-227 279v20z" />
    <glyph glyph-name="ecaron" unicode="&#x11b;" horiz-adv-x="1103" 
d="M778 616q0 201 -207 201q-102 0 -157 -72q-52 -63 -58 -159h420q2 8 2 15v15zM983 53q-178 -84 -413 -84t-365 150q-129 149 -129 373q0 223 130 375q130 151 359 151t348 -120t117 -306q0 -84 -14 -178h-660q12 -161 149 -208q44 -15 99 -16q151 0 316 62zM246 1460h229
l109 -141l106 141h230v-20l-187 -279h-301l-186 279v20z" />
    <glyph glyph-name="Gcircumflex" unicode="&#x11c;" horiz-adv-x="1404" 
d="M791 213q123 0 210 37v260l-247 35v203h532v-658q-96 -51 -239 -86t-300 -35q-312 0 -483 197q-170 197 -170 520t170 520q187 217 533 217q141 1 266 -31t207 -69l-82 -221q-184 78 -392 78t-306 -127q-99 -127 -99 -355t89 -353q46 -62 117 -97t194 -35zM1112 1536
h-229l-129 162l-127 -162h-230v20l228 279h260l227 -279v-20z" />
    <glyph glyph-name="gcircumflex" unicode="&#x11d;" horiz-adv-x="1200" 
d="M795 86h-4q-45 -33 -111 -66q-66 -32 -171 -32q-204 1 -316 145q-113 144 -113 366t112 370q112 149 318 149q134 0 248 -81q31 -22 57 -40h4l37 90h215v-924q0 -368 -294 -467q-95 -32 -216 -32q-210 0 -387 96l80 203q130 -70 307 -72q121 0 177 49t57 172v74zM596 215
q99 0 199 55v459q-99 60 -199 62q-230 0 -234 -291q0 -285 234 -285zM956 1161h-229l-109 142l-106 -142h-229v21l186 278h301l186 -278v-21z" />
    <glyph glyph-name="Gbreve" unicode="&#x11e;" horiz-adv-x="1404" 
d="M791 213q123 0 210 37v260l-247 35v203h532v-658q-96 -51 -239 -86t-300 -35q-312 0 -483 197q-170 197 -170 520t170 520q187 217 533 217q141 1 266 -31t207 -69l-82 -221q-184 78 -392 78t-306 -127q-99 -127 -99 -355t89 -353q46 -62 117 -97t194 -35zM1116 1696
q-107 -158 -355 -158t-358 158l86 131q95 -70 273 -70t268 70z" />
    <glyph glyph-name="gbreve" unicode="&#x11f;" horiz-adv-x="1200" 
d="M795 86h-4q-45 -33 -111 -66q-66 -32 -171 -32q-204 1 -316 145q-113 144 -113 366t112 370q112 149 318 149q134 0 248 -81q31 -22 57 -40h4l37 90h215v-924q0 -368 -294 -467q-95 -32 -216 -32q-210 0 -387 96l80 203q130 -70 307 -72q121 0 177 49t57 172v74zM596 215
q99 0 199 55v459q-99 60 -199 62q-230 0 -234 -291q0 -285 234 -285zM977 1319q-107 -158 -357 -158q-249 0 -356 158l86 131q95 -70 273 -70t268 70z" />
    <glyph glyph-name="Gdotaccent" unicode="&#x120;" horiz-adv-x="1404" 
d="M791 213q123 0 210 37v260l-247 35v203h532v-658q-96 -51 -239 -86t-300 -35q-312 0 -483 197q-170 197 -170 520t170 520q187 217 533 217q141 1 266 -31t207 -69l-82 -221q-184 78 -392 78t-306 -127q-99 -127 -99 -355t89 -353q46 -62 117 -97t194 -35zM596 1677
q0 66 44 109t117 43t117 -43t44 -109q0 -67 -44 -109t-118 -42q-72 0 -116 42t-44 109z" />
    <glyph glyph-name="gdotaccent" unicode="&#x121;" horiz-adv-x="1200" 
d="M795 86h-4q-45 -33 -111 -66q-66 -32 -171 -32q-204 1 -316 145q-113 144 -113 366t112 370q112 149 318 149q134 0 248 -81q31 -22 57 -40h4l37 90h215v-924q0 -368 -294 -467q-95 -32 -216 -32q-210 0 -387 96l80 203q130 -70 307 -72q121 0 177 49t57 172v74zM596 215
q99 0 199 55v459q-99 60 -199 62q-230 0 -234 -291q0 -285 234 -285zM459 1311q0 67 44 109q45 42 117 42t116 -43t44 -109t-44 -108q-44 -43 -117 -43t-117 43t-43 109z" />
    <glyph glyph-name="uni0122" unicode="&#x122;" horiz-adv-x="1404" 
d="M791 213q123 0 210 37v260l-247 35v203h532v-658q-96 -51 -239 -86t-300 -35q-312 0 -483 197q-170 197 -170 520t170 520q187 217 533 217q141 1 266 -31t207 -69l-82 -221q-184 78 -392 78t-306 -127q-99 -127 -99 -355t89 -353q46 -62 117 -97t194 -35zM899 -106v-21
l-121 -319h-207v20l52 320h276z" />
    <glyph glyph-name="uni0123" unicode="&#x123;" horiz-adv-x="1200" 
d="M795 86h-4q-45 -33 -111 -66q-66 -32 -171 -32q-204 1 -316 145q-113 144 -113 366t112 370q112 149 318 149q134 0 248 -81q31 -22 57 -40h4l37 90h215v-924q0 -368 -294 -467q-95 -32 -216 -32q-210 0 -387 96l80 203q130 -70 307 -72q121 0 177 49t57 172v74zM596 215
q99 0 199 55v459q-99 60 -199 62q-230 0 -234 -291q0 -285 234 -285zM479 1141v20l121 320h207v-21l-51 -319h-277z" />
    <glyph glyph-name="Hcircumflex" unicode="&#x124;" horiz-adv-x="1478" 
d="M1032 584h-586v-584h-284v1393h284v-572h586v572h285v-1393h-285v584zM1096 1536h-230l-129 162l-127 -162h-229v20l227 279h260l228 -279v-20z" />
    <glyph glyph-name="hcircumflex" unicode="&#x125;" horiz-adv-x="1189" 
d="M795 594q0 195 -177 197q-63 0 -120 -28q-58 -28 -92 -67v-696h-277v1434h277v-529h4q43 38 124 76q81 37 171 37q176 0 271 -110t95 -287v-621h-276v594zM961 1536h-230l-129 162l-127 -162h-229v20l227 279h260l228 -279v-20z" />
    <glyph glyph-name="Hbar" unicode="&#x126;" horiz-adv-x="1544" 
d="M1065 821v189h-586v-189h586zM1065 584h-586v-584h-284v1010h-103v217h103v166h284v-166h586v166h285v-166h102v-217h-102v-1010h-285v584z" />
    <glyph glyph-name="hbar" unicode="&#x127;" horiz-adv-x="1189" 
d="M795 594q0 197 -177 197q-123 0 -212 -95v-696h-277v1106h-102v211h102v117h277v-117h215v-211h-215v-201h4q78 70 161.5 91.5t133.5 21.5q176 0 271 -109.5t95 -287.5v-621h-276v594z" />
    <glyph glyph-name="Itilde" unicode="&#x128;" horiz-adv-x="608" 
d="M446 0h-284v1393h284v-1393zM143 1630q-78 0 -137 -71l-55 143q33 57 91 96t128 39t160 -46q34 -17 68 -31t75 -15q84 0 137 70l56 -140q-36 -65 -96 -101t-124 -36t-162 46q-97 46 -141 46z" />
    <glyph glyph-name="itilde" unicode="&#x129;" horiz-adv-x="534" 
d="M129 0v987h277v-987h-277zM104 1253q-78 0 -137 -71l-55 143q33 57 91 96t128 39t160 -46q35 -18 69 -32t74 -14q83 0 137 70l56 -140q-35 -66 -95 -102t-113 -35q-71 0 -171 46t-144 46z" />
    <glyph glyph-name="Imacron" unicode="&#x12a;" horiz-adv-x="608" 
d="M446 0h-284v1393h284v-1393zM6 1554v211h594v-211h-594z" />
    <glyph glyph-name="imacron" unicode="&#x12b;" horiz-adv-x="534" 
d="M129 0v987h277v-987h-277zM-27 1186v211h594v-211h-594z" />
    <glyph glyph-name="Ibreve" unicode="&#x12c;" horiz-adv-x="608" 
d="M446 0h-284v1393h284v-1393zM312 1757q178 0 268 70l86 -131q-106 -158 -356 -158q-249 0 -357 158l86 131q95 -70 273 -70z" />
    <glyph glyph-name="ibreve" unicode="&#x12d;" horiz-adv-x="534" 
d="M129 0v987h277v-987h-277zM273 1380q178 0 268 70l86 -131q-107 -158 -357 -158q-249 0 -356 158l86 131q95 -70 273 -70z" />
    <glyph glyph-name="Iogonek" unicode="&#x12e;" horiz-adv-x="608" 
d="M233 -188q0 -70 96 -70q53 0 97 37l23 -164q-33 -20 -88.5 -35.5t-107.5 -15.5q-103 0 -168 58t-65 153q0 137 142 225v1393h284v-1393q-155 -33 -184 -93.5t-29 -94.5z" />
    <glyph glyph-name="iogonek" unicode="&#x12f;" horiz-adv-x="534" 
d="M109 1310.5q0 65.5 44.5 108.5t116.5 43t116 -43t44 -108.5t-44 -108.5t-117 -43t-116.5 43t-43.5 108.5zM292 -258q52 0 97 37l23 -164q-33 -20 -88.5 -35.5t-107.5 -15.5q-103 0 -167.5 57.5t-64.5 153.5q0 133 145 229v983h277v-987q-111 -25 -160 -78t-49 -99
t21.5 -63.5t73.5 -17.5z" />
    <glyph glyph-name="Idotaccent" unicode="&#x130;" horiz-adv-x="608" 
d="M446 0h-284v1393h284v-1393zM145 1677q0 66 44 109t117 43t117 -43t44 -109q0 -67 -44 -109t-117 -42t-117 42t-44 109z" />
    <glyph glyph-name="dotlessi" unicode="&#x131;" horiz-adv-x="534" 
d="M129 0v987h277v-987h-277z" />
    <glyph glyph-name="IJ" unicode="&#x132;" horiz-adv-x="1595" 
d="M446 0h-284v1393h284v-1393zM752 319q115 -106 220 -106q187 0 187 229v951h285v-969q0 -227 -122 -341t-331 -114t-368 146z" />
    <glyph glyph-name="ij" unicode="&#x133;" horiz-adv-x="1069" 
d="M109 1311q0 67 44 109q45 42 117 42t116 -43t44 -109t-44 -108q-44 -43 -117 -43t-117 43t-43 109zM129 0v987h277v-987h-277zM643 1311q0 67 44 109t117 42t117 -43t44 -109t-44 -108q-44 -43 -117 -43t-117 43t-44 109zM548 -209q62 0 89 31t27 98v1067h276v-1050
q0 -193 -89 -283t-265 -90q-67 0 -144 14v223q44 -10 106 -10z" />
    <glyph glyph-name="Jcircumflex" unicode="&#x134;" horiz-adv-x="987" 
d="M143 319q115 -106 221 -106q187 0 187 229v951h285v-969q0 -227 -122 -341t-330 -114t-370 146zM1049 1536h-230l-129 162l-127 -162h-229v20l227 279h260l228 -279v-20z" />
    <glyph glyph-name="jcircumflex" unicode="&#x135;" horiz-adv-x="534" 
d="M14 -209q61 0 88 31t27 98v1067h277v-1050q0 -373 -355 -373q-66 0 -143 14v223q45 -10 106 -10zM606 1161h-229l-109 142l-106 -142h-230v21l187 278h301l186 -278v-21z" />
    <glyph glyph-name="uni0136" unicode="&#x136;" horiz-adv-x="1316" 
d="M446 623v-623h-284v1393h284v-674h5l507 674h316v-21l-533 -690l559 -662v-20h-331l-518 623h-5zM799 -106v-21l-121 -319h-207v20l51 320h277z" />
    <glyph glyph-name="uni0137" unicode="&#x137;" horiz-adv-x="1101" 
d="M406 457v-457h-277v1434h277v-891h4l346 444h301v-20l-375 -459l393 -488v-20h-313l-352 457h-4zM696 -106v-21l-121 -319h-206v20l51 320h276z" />
    <glyph glyph-name="kgreenlandic" unicode="&#x138;" horiz-adv-x="1101" 
d="M403 432v-432h-272v987h272v-471h5l350 471h297v-14l-385 -486l403 -473v-14h-305l-360 432h-5z" />
    <glyph glyph-name="Lacute" unicode="&#x139;" horiz-adv-x="1091" 
d="M446 1393v-1155h601v-238h-885v1393h284zM174 1536v20l121 279h311v-18l-170 -281h-262z" />
    <glyph glyph-name="lacute" unicode="&#x13a;" horiz-adv-x="593" 
d="M379 -18q-141 0 -198 70q-56 71 -56 218v1164h276v-1213q-1 -23 5 -30t28 -7h109v-188q-77 -14 -164 -14zM133 1536v20l121 279h311v-18l-170 -281h-262z" />
    <glyph glyph-name="uni013B" unicode="&#x13b;" horiz-adv-x="1091" 
d="M446 1393v-1155h601v-238h-885v1393h284zM756 -106v-21l-121 -319h-207v20l51 320h277z" />
    <glyph glyph-name="uni013C" unicode="&#x13c;" horiz-adv-x="593" 
d="M379 -18q-141 0 -198 70q-56 71 -56 218v1164h276v-1213q-1 -23 5 -30t28 -7h109v-188q-77 -14 -164 -14zM475 -106v-21l-121 -319h-207v20l52 320h276z" />
    <glyph glyph-name="Lcaron" unicode="&#x13d;" horiz-adv-x="1093" 
d="M446 1393v-1155h601v-238h-885v1393h284zM952 1393v-21l-121 -319h-206v20l51 320h276z" />
    <glyph glyph-name="lcaron" unicode="&#x13e;" horiz-adv-x="583" 
d="M379 -18q-141 0 -198 70q-56 71 -56 218v1164h276v-1213q-1 -23 5 -30t28 -7h109v-188q-77 -14 -164 -14zM815 1393v-21l-121 -319h-207v20l52 320h276z" />
    <glyph glyph-name="Ldot" unicode="&#x13f;" horiz-adv-x="1132" 
d="M446 1393v-1155h601v-238h-885v1393h284zM672 739q0 78 47 127t127 49t127 -49t47 -127t-47 -127t-127 -49t-127 49t-47 127z" />
    <glyph glyph-name="ldot" unicode="&#x140;" horiz-adv-x="874" 
d="M379 -18q-141 0 -198 70q-56 71 -56 218v1164h276v-1213q-1 -23 5 -30t28 -7h109v-188q-77 -14 -164 -14zM528 739q0 78 47 127t127 49t127 -49t47 -127t-46 -127q-48 -49 -128 -49t-127 49t-47 127z" />
    <glyph glyph-name="Lslash" unicode="&#x141;" horiz-adv-x="1153" 
d="M508 1393v-519l248 125h20v-243l-268 -135v-383h600v-238h-885v479l-114 -57h-21v244l135 67v660h285z" />
    <glyph glyph-name="lslash" unicode="&#x142;" horiz-adv-x="684" 
d="M442 -18q-141 0 -197.5 70.5t-56.5 217.5v209l-122 -61h-21v244l143 71v701h277v-562l162 82h20v-243l-182 -93v-397q0 -23 5 -30t28 -7h108v-188q-77 -14 -164 -14z" />
    <glyph glyph-name="Nacute" unicode="&#x143;" horiz-adv-x="1507" 
d="M1061 432v961h285v-1393h-302l-591 961h-7v-961h-284v1393h301l592 -961h6zM612 1536v20l121 279h311v-18l-170 -281h-262z" />
    <glyph glyph-name="nacute" unicode="&#x144;" horiz-adv-x="1189" 
d="M1071 623v-623h-276v594q0 195 -177 197q-107 0 -212 -84v-707h-277v987h221l37 -96h4q141 127 316 127q174 0 269 -109t95 -286zM487 1161v21l162 278h291v-18l-211 -281h-242z" />
    <glyph glyph-name="uni0145" unicode="&#x145;" horiz-adv-x="1507" 
d="M1061 432v961h285v-1393h-302l-591 961h-7v-961h-284v1393h301l592 -961h6zM891 -106v-21l-121 -319h-207v20l51 320h277z" />
    <glyph glyph-name="uni0146" unicode="&#x146;" horiz-adv-x="1189" 
d="M1071 623v-623h-276v594q0 195 -177 197q-107 0 -212 -84v-707h-277v987h221l37 -96h4q141 127 316 127q174 0 269 -109t95 -286zM733 -106v-21l-121 -319h-206v20l51 320h276z" />
    <glyph glyph-name="Ncaron" unicode="&#x147;" horiz-adv-x="1507" 
d="M1061 432v961h285v-1393h-302l-591 961h-7v-961h-284v1393h301l592 -961h6zM401 1835h230l129 -162l127 162h229v-20l-227 -279h-260l-228 279v20z" />
    <glyph glyph-name="ncaron" unicode="&#x148;" horiz-adv-x="1189" 
d="M1071 623v-623h-276v594q0 195 -177 197q-107 0 -212 -84v-707h-277v987h221l37 -96h4q141 127 316 127q174 0 269 -109t95 -286zM274 1460h230l108 -141l107 141h229v-20l-186 -279h-301l-187 279v20z" />
    <glyph glyph-name="napostrophe" unicode="&#x149;" horiz-adv-x="1189" 
d="M1071 623v-623h-276v594q0 195 -177 197q-107 0 -212 -84v-707h-277v987h221l37 -96h4q141 127 316 127q174 0 269 -109t95 -286zM240 1393v-21l-121 -319h-207v20l51 320h277z" />
    <glyph glyph-name="Eng" unicode="&#x14a;" horiz-adv-x="1507" 
d="M954 -190q61 0 84 24.5t23 91.5v74l-608 961h-7v-961h-284v1393h301l592 -940h6v940h285v-1456q0 -193 -89.5 -283t-265.5 -90q-66 0 -143 14v242q45 -10 106 -10z" />
    <glyph glyph-name="eng" unicode="&#x14b;" horiz-adv-x="1189" 
d="M1071 623v-686q0 -193 -89 -283t-265 -90q-67 0 -144 14v223q45 -10 107 -10t88.5 31t26.5 98v674q0 197 -177 197q-100 0 -212 -84v-707h-277v987h221l37 -96h4q141 127 316 127q174 0 269 -108.5t95 -286.5z" />
    <glyph glyph-name="Omacron" unicode="&#x14c;" horiz-adv-x="1533" 
d="M96 696q0 322 169 525q169 202 503 202q333 0 508 -211q162 -194 162 -515t-168 -524q-168 -202 -502 -203q-333 -1 -503 201q-169 203 -169 525zM767 213q369 0 374 483q0 345 -199 447q-72 37 -175 37t-174 -37q-200 -104 -200 -447q0 -345 200 -446q71 -37 174 -37z
M471 1554v211h594v-211h-594z" />
    <glyph glyph-name="omacron" unicode="&#x14d;" horiz-adv-x="1193" 
d="M979 117q-139 -149 -383 -148q-243 0 -381 149q-139 149 -139 374t139 376q139 150 381 150q243 0 390 -155q132 -140 132 -368q0 -229 -139 -378zM358 494q0 -143 64 -220t174 -77q172 0 222 167q17 56 18 130q0 144 -63 220q-63 75 -177 77q-169 0 -220 -167
q-18 -56 -18 -130zM299 1186v211h594v-211h-594z" />
    <glyph glyph-name="Obreve" unicode="&#x14e;" horiz-adv-x="1533" 
d="M96 696q0 322 169 525q169 202 503 202q333 0 508 -211q162 -194 162 -515t-168 -524q-168 -202 -502 -203q-333 -1 -503 201q-169 203 -169 525zM767 213q369 0 374 483q0 345 -199 447q-72 37 -175 37t-174 -37q-200 -104 -200 -447q0 -345 200 -446q71 -37 174 -37z
M502 1827q95 -70 273 -70t267 70l86 -131q-107 -158 -356 -158t-356 158z" />
    <glyph glyph-name="obreve" unicode="&#x14f;" horiz-adv-x="1193" 
d="M979 117q-139 -149 -383 -148q-243 0 -381 149q-139 149 -139 374t139 376q139 150 381 150q243 0 390 -155q132 -140 132 -368q0 -229 -139 -378zM358 494q0 -143 64 -220t174 -77q172 0 222 167q17 56 18 130q0 144 -63 220q-63 75 -177 77q-169 0 -220 -167
q-18 -56 -18 -130zM598 1380q177 0 268 70l86 -131q-107 -158 -356 -158t-356 158l86 131q95 -70 272 -70z" />
    <glyph glyph-name="Ohungarumlaut" unicode="&#x150;" horiz-adv-x="1533" 
d="M96 696q0 322 169 525q169 202 503 202q333 0 508 -211q162 -194 162 -515t-168 -524q-168 -202 -502 -203q-333 -1 -503 201q-169 203 -169 525zM767 213q369 0 374 483q0 345 -199 447q-72 37 -175 37t-174 -37q-200 -104 -200 -447q0 -345 200 -446q71 -37 174 -37z
M877 1536v20l161 279h291v-20l-211 -279h-241zM446 1536v20l162 279h291v-20l-211 -279h-242z" />
    <glyph glyph-name="ohungarumlaut" unicode="&#x151;" horiz-adv-x="1193" 
d="M979 117q-139 -149 -383 -148q-243 0 -381 149q-139 149 -139 374t139 376q139 150 381 150q243 0 390 -155q132 -140 132 -368q0 -229 -139 -378zM358 494q0 -143 64 -220t174 -77q172 0 222 167q17 56 18 130q0 144 -63 220q-63 75 -177 77q-169 0 -220 -167
q-18 -56 -18 -130zM682 1161v21l162 278h291v-18l-211 -281h-242zM252 1161v21l162 278h291v-18l-211 -281h-242z" />
    <glyph glyph-name="OE" unicode="&#x152;" horiz-adv-x="2037" 
d="M784 1180q-120 0 -191 -37t-116 -101.5t-64.5 -153.5t-19.5 -252.5t90.5 -293t284.5 -129.5q135 0 223 47v873q-87 47 -207 47zM96 696.5q0 321.5 168.5 524t503.5 202.5q127 0 229 -30h928v-238h-649v-334h582v-237h-582v-346h655v-238h-936q-113 -31 -257 -31
t-271 56.5t-249 203t-122 468z" />
    <glyph glyph-name="oe" unicode="&#x153;" horiz-adv-x="1865" 
d="M1542 616q0 201 -207 201q-99 0 -155 -68.5t-60 -162.5h420q2 8 2 10v20zM358 458q0 -109 63.5 -185t174.5 -76q171 0 205.5 111.5t34.5 220.5t-64 185.5t-176 76.5q-169 0 -203.5 -112t-34.5 -221zM1794 592q0 -86 -14 -178h-660q12 -160 102.5 -192t145.5 -32
q152 0 315 62l64 -199q-178 -84 -399 -84q-123 0 -216.5 49.5t-156.5 114.5q-159 -164 -391 -164t-370 149.5t-138 375.5q0 227 138 375.5t369 148.5t392 -166q154 166 369 166t332.5 -118.5t117.5 -307.5z" />
    <glyph glyph-name="Racute" unicode="&#x154;" horiz-adv-x="1359" 
d="M735 788q97 0 149 50t52 135q0 84 -52 133t-149 49h-289v-367h289zM1233 973q0 -328 -305 -404l381 -536v-33h-312l-372 551h-179v-551h-284v1393h588q248 0 366 -110t117 -310zM496 1536v20l120 279h312v-18l-170 -281h-262z" />
    <glyph glyph-name="racute" unicode="&#x155;" horiz-adv-x="774" 
d="M406 0h-277v987h223l39 -119h4q55 99 161 136q40 14 86 14t101 -12l-24 -232q-46 8 -98 8q-139 0 -215 -96v-686zM268 1161v21l162 278h291v-18l-211 -281h-242z" />
    <glyph glyph-name="uni0156" unicode="&#x156;" horiz-adv-x="1359" 
d="M735 788q97 0 149 50t52 135q0 84 -52 133t-149 49h-289v-367h289zM1233 973q0 -328 -305 -404l381 -536v-33h-312l-372 551h-179v-551h-284v1393h588q248 0 366 -110t117 -310zM809 -106v-21l-121 -319h-207v20l51 320h277z" />
    <glyph glyph-name="uni0157" unicode="&#x157;" horiz-adv-x="774" 
d="M406 0h-277v987h223l39 -119h4q55 99 161 136q40 14 86 14t101 -12l-24 -232q-46 8 -98 8q-139 0 -215 -96v-686zM412 -106v-21l-121 -319h-207v20l51 320h277z" />
    <glyph glyph-name="Rcaron" unicode="&#x158;" horiz-adv-x="1359" 
d="M735 788q97 0 149 50t52 135q0 84 -52 133t-149 49h-289v-367h289zM1233 973q0 -328 -305 -404l381 -536v-33h-312l-372 551h-179v-551h-284v1393h588q248 0 366 -110t117 -310zM287 1835h229l129 -162l127 162h229v-20l-227 -279h-260l-227 279v20z" />
    <glyph glyph-name="rcaron" unicode="&#x159;" horiz-adv-x="774" 
d="M406 0h-277v987h223l39 -119h4q55 99 161 136q40 14 86 14t101 -12l-24 -232q-46 8 -98 8q-139 0 -215 -96v-686zM88 1460h229l109 -141l106 141h230v-20l-187 -279h-301l-186 279v20z" />
    <glyph glyph-name="Sacute" unicode="&#x15a;" horiz-adv-x="1148" 
d="M936 1096q-180 88 -350 88q-90 0 -141 -44q-50 -44 -50 -108t30 -103q30 -40 114 -67l145 -47q200 -63 295 -158q94 -94 92 -247q0 -206 -139 -324q-140 -117 -378 -117t-476 133l88 224q124 -75 284 -107q54 -10 101 -10q229 0 229 176q0 68 -45 104t-151 72l-150 49
q-166 54 -248 154t-82 214q0 322 287 415q176 58 419 4q119 -26 212 -74zM444 1536v20l121 279h312v-18l-170 -281h-263z" />
    <glyph glyph-name="sacute" unicode="&#x15b;" horiz-adv-x="958" 
d="M621 274q0 45 -35 67t-101 38l-129 31q-187 44 -245 174q-23 49 -23 116q0 146 109 232t301 86t368 -72l-75 -196q-156 59 -295 59q-140 0 -140 -90q0 -43 33 -63t94 -38l125 -30q281 -67 281 -295q0 -148 -112 -236t-317 -88q-206 0 -394 94l81 199q163 -84 319 -84
q155 0 155 96zM336 1161v21l162 278h290v-18l-210 -281h-242z" />
    <glyph glyph-name="Scircumflex" unicode="&#x15c;" horiz-adv-x="1148" 
d="M936 1096q-180 88 -350 88q-90 0 -141 -44q-50 -44 -50 -108t30 -103q30 -40 114 -67l145 -47q200 -63 295 -158q94 -94 92 -247q0 -206 -139 -324q-140 -117 -378 -117t-476 133l88 224q124 -75 284 -107q54 -10 101 -10q229 0 229 176q0 68 -45 104t-151 72l-150 49
q-166 54 -248 154t-82 214q0 322 287 415q176 58 419 4q119 -26 212 -74zM932 1536h-230l-129 162l-127 -162h-229v20l227 279h261l227 -279v-20z" />
    <glyph glyph-name="scircumflex" unicode="&#x15d;" horiz-adv-x="958" 
d="M621 274q0 45 -35 67t-101 38l-129 31q-187 44 -245 174q-23 49 -23 116q0 146 109 232t301 86t368 -72l-75 -196q-156 59 -295 59q-140 0 -140 -90q0 -43 33 -63t94 -38l125 -30q281 -67 281 -295q0 -148 -112 -236t-317 -88q-206 0 -394 94l81 199q163 -84 319 -84
q155 0 155 96zM815 1161h-229l-109 142l-106 -142h-230v21l187 278h301l186 -278v-21z" />
    <glyph glyph-name="Scedilla" unicode="&#x15e;" horiz-adv-x="1148" 
d="M610 -92q142 -22 142 -163q0 -77 -63.5 -129t-163.5 -52t-169 24l29 129q46 -16 88 -16q72 0 72 51q0 39 -40 47t-79 8l-8 13l59 153q-113 12 -220 49t-179 80l88 224q130 -79 234 -98t151 -19q229 0 229 176q0 67 -44 104t-152 72l-150 49q-166 53 -248 153.5t-82 214.5
q0 213 131 329t375 116q136 0 249.5 -37.5t162.5 -62.5l-86 -227q-180 88 -350 88q-90 0 -140.5 -44t-50.5 -108t30 -103.5t114 -66.5l145 -47q202 -64 294.5 -157t92.5 -263q0 -169 -112 -283t-320 -137z" />
    <glyph glyph-name="scedilla" unicode="&#x15f;" horiz-adv-x="960" 
d="M524 -92q142 -22 142 -163q0 -77 -63.5 -129t-163.5 -52t-169 24l29 129q46 -16 88 -16q72 0 72 51q0 39 -40 47t-79 8l-8 13l59 153q-163 10 -325 90l81 199q163 -84 318.5 -84t155.5 96q0 45 -35 66.5t-101 38.5l-129 31q-186 44 -227 133.5t-41 156.5
q0 145 108.5 231.5t300.5 86.5t369 -72l-75 -196q-156 59 -295 59q-140 0 -140 -90q0 -43 33 -63.5t94 -37.5l125 -30q281 -67 281 -295q0 -137 -91 -220t-245 -100z" />
    <glyph glyph-name="Scaron" unicode="&#x160;" horiz-adv-x="1148" 
d="M936 1096q-180 88 -350 88q-90 0 -141 -44q-50 -44 -50 -108t30 -103q30 -40 114 -67l145 -47q200 -63 295 -158q94 -94 92 -247q0 -206 -139 -324q-140 -117 -378 -117t-476 133l88 224q124 -75 284 -107q54 -10 101 -10q229 0 229 176q0 68 -45 104t-151 72l-150 49
q-166 54 -248 154t-82 214q0 322 287 415q176 58 419 4q119 -26 212 -74zM221 1835h230l129 -162l127 162h229v-20l-227 -279h-260l-228 279v20z" />
    <glyph glyph-name="scaron" unicode="&#x161;" horiz-adv-x="958" 
d="M621 274q0 45 -35 67t-101 38l-129 31q-187 44 -245 174q-23 49 -23 116q0 146 109 232t301 86t368 -72l-75 -196q-156 59 -295 59q-140 0 -140 -90q0 -43 33 -63t94 -38l125 -30q281 -67 281 -295q0 -148 -112 -236t-317 -88q-206 0 -394 94l81 199q163 -84 319 -84
q155 0 155 96zM143 1460h230l108 -141l107 141h229v-20l-186 -279h-301l-187 279v20z" />
    <glyph glyph-name="uni0162" unicode="&#x162;" horiz-adv-x="1163" 
d="M616 -92q142 -22 142 -163q0 -77 -63.5 -129t-163.5 -52t-169 24l29 129q46 -16 88 -16q72 0 72 51q0 39 -40 47t-79 8l-8 13l76 180h-62v1155h-391v238h1069v-238h-393v-1155h-59z" />
    <glyph glyph-name="uni0163" unicode="&#x163;" horiz-adv-x="849" 
d="M506 -92q141 -21 141 -163q0 -77 -63.5 -129t-162.5 -52t-169 24l29 129q46 -16 88 -16q71 0 71 51q0 39 -40 47t-78 8l-9 13l68 174q-158 56 -158 264v518h-180v150l180 61v230h277v-230h282v-211h-282v-467q0 -112 116 -112q62 0 160 28v-225q-128 -31 -244 -31z" />
    <glyph glyph-name="Tcaron" unicode="&#x164;" horiz-adv-x="1163" 
d="M1116 1393v-238h-393v-1155h-285v1155h-391v238h1069zM221 1835h230l129 -162l127 162h229v-20l-227 -279h-260l-228 279v20z" />
    <glyph glyph-name="tcaron" unicode="&#x165;" horiz-adv-x="849" 
d="M223 258v518h-180v150l180 61v230h277v-230h282v-211h-282v-467q0 -114 116 -112q62 0 160 28v-225q-114 -29 -254 -30q-141 -1 -220 69t-79 219zM975 1393v-21l-121 -319h-207v20l51 320h277z" />
    <glyph glyph-name="Tbar" unicode="&#x166;" horiz-adv-x="1163" 
d="M723 631v-631h-285v631h-235v217h235v307h-391v238h1069v-238h-393v-307h238v-217h-238z" />
    <glyph glyph-name="tbar" unicode="&#x167;" horiz-adv-x="851" 
d="M547 -31q-164 0 -243 70t-79 219v170h-137v211h137v137h-180v150l180 61v230h277v-230h282v-211h-282v-137h180v-211h-180v-119q0 -112 116 -112q62 0 160 28v-225q-120 -31 -231 -31z" />
    <glyph glyph-name="Utilde" unicode="&#x168;" horiz-adv-x="1445" 
d="M723 -31q-578 0 -578 602v822h285v-822q0 -254 157 -330q56 -28 136 -28q146 0 218 93t75 265v822h284v-822q0 -441 -317 -561q-109 -41 -260 -41zM557 1630q-80 0 -137 -71l-55 143q33 57 91 96t129 39t158 -46q35 -17 69 -31t75 -15q84 0 137 70l55 -140
q-35 -65 -95 -101t-125 -36t-162 46t-140 46z" />
    <glyph glyph-name="utilde" unicode="&#x169;" horiz-adv-x="1177" 
d="M571 197q98 0 201 84v706h277v-987h-224l-37 96h-4q-138 -124 -310 -126q-173 -1 -264 108t-91 287v622h276v-594q0 -96 39 -146t137 -50zM426 1253q-80 0 -137 -71l-56 143q33 57 91 96t130 39q71 0 158 -46q35 -18 69 -32t75 -14q83 0 137 70l55 -140q-35 -66 -95 -102
q-61 -36 -113 -35q-71 0 -171 46t-143 46z" />
    <glyph glyph-name="Umacron" unicode="&#x16a;" horiz-adv-x="1445" 
d="M723 -31q-578 0 -578 602v822h285v-822q0 -254 157 -330q56 -28 136 -28q146 0 218 93t75 265v822h284v-822q0 -441 -317 -561q-109 -41 -260 -41zM426 1554v211h594v-211h-594z" />
    <glyph glyph-name="umacron" unicode="&#x16b;" horiz-adv-x="1177" 
d="M571 197q98 0 201 84v706h277v-987h-224l-37 96h-4q-138 -124 -310 -126q-173 -1 -264 108t-91 287v622h276v-594q0 -96 39 -146t137 -50zM299 1186v211h594v-211h-594z" />
    <glyph glyph-name="Ubreve" unicode="&#x16c;" horiz-adv-x="1445" 
d="M723 -31q-578 0 -578 602v822h285v-822q0 -254 157 -330q56 -28 136 -28q146 0 218 93t75 265v822h284v-822q0 -441 -317 -561q-109 -41 -260 -41zM1077 1696q-107 -158 -356 -158t-356 158l86 131q95 -70 272 -70t268 70z" />
    <glyph glyph-name="ubreve" unicode="&#x16d;" horiz-adv-x="1177" 
d="M571 197q98 0 201 84v706h277v-987h-224l-37 96h-4q-138 -124 -310 -126q-173 -1 -264 108t-91 287v622h276v-594q0 -96 39 -146t137 -50zM596 1380q177 0 268 70l86 -131q-107 -158 -356 -158t-356 158l86 131q95 -70 272 -70z" />
    <glyph glyph-name="Uring" unicode="&#x16e;" horiz-adv-x="1445" 
d="M723 -31q-578 0 -578 602v822h285v-822q0 -254 157 -330q56 -28 136 -28q146 0 218 93t75 265v822h284v-822q0 -441 -317 -561q-109 -41 -260 -41zM722 1477q-110 0 -180 61q-70 60 -69 168q0 108 70 170q71 62 181 61q110 0 178 -61t69 -169q0 -108 -69 -169
q-70 -61 -180 -61zM637 1708q0 -78 85 -79t85 79q0 36 -23 58q-24 22 -62 22t-62 -22t-23 -58z" />
    <glyph glyph-name="uring" unicode="&#x16f;" horiz-adv-x="1177" 
d="M571 197q98 0 201 84v706h277v-987h-224l-37 96h-4q-138 -124 -310 -126q-173 -1 -264 108t-91 287v622h276v-594q0 -96 39 -146t137 -50zM336 1316q0 108 70 168q70 62 180 62t180 -61q68 -61 68 -169t-69 -169t-179 -61t-180 60q-70 62 -70 170zM500 1317q0 -80 85 -80
t85 80q0 37 -23 59t-61 21q-38 1 -62 -21t-24 -59z" />
    <glyph glyph-name="Uhungarumlaut" unicode="&#x170;" horiz-adv-x="1445" 
d="M723 -31q-578 0 -578 602v822h285v-822q0 -254 157 -330q56 -28 136 -28q146 0 218 93t75 265v822h284v-822q0 -441 -317 -561q-109 -41 -260 -41zM811 1536v20l162 279h291v-20l-211 -279h-242zM381 1536v20l162 279h291v-20l-211 -279h-242z" />
    <glyph glyph-name="uhungarumlaut" unicode="&#x171;" horiz-adv-x="1177" 
d="M571 197q98 0 201 84v706h277v-987h-224l-37 96h-4q-138 -124 -310 -126q-173 -1 -264 108t-91 287v622h276v-594q0 -96 39 -146t137 -50zM680 1161v21l162 278h291v-18l-211 -281h-242zM250 1161v21l162 278h290v-18l-210 -281h-242z" />
    <glyph glyph-name="Uogonek" unicode="&#x172;" horiz-adv-x="1449" 
d="M831 -258q65 0 109 37l23 -164q-33 -20 -88.5 -35.5t-107.5 -15.5q-103 0 -169 58.5t-66 152.5q0 120 113 198q-262 20 -380 176t-118 422v822h285v-822q0 -254 106.5 -306t220.5 -52t186.5 94.5t72.5 263.5v822h285v-822q0 -536 -459 -594q-47 -10 -71.5 -53t-24.5 -92
q0 -90 83 -90z" />
    <glyph glyph-name="uogonek" unicode="&#x173;" horiz-adv-x="1177" 
d="M958 -258q65 0 109 37l23 -164q-33 -20 -88.5 -35.5t-107.5 -15.5q-103 0 -167.5 57.5t-64.5 153.5q0 124 161 227l-35 94h-4q-141 -127 -312 -127t-262 108.5t-91 287.5v622h276v-594q0 -96 39 -146t137 -50t201 84v706h277v-987q-110 -38 -142.5 -98t-32.5 -84
q0 -76 84 -76z" />
    <glyph glyph-name="Wcircumflex" unicode="&#x174;" horiz-adv-x="2076" 
d="M39 1393h305l236 -1086h4l288 1086h332l289 -1086h4l234 1086h307v-21l-379 -1372h-338l-281 1079h-2l-280 -1079h-340l-379 1372v21zM1399 1536h-230l-129 162l-127 -162h-229v20l227 279h260l228 -279v-20z" />
    <glyph glyph-name="wcircumflex" unicode="&#x175;" horiz-adv-x="1720" 
d="M37 987h276l183 -684h4l211 684h299l211 -684h4l182 684h276v-20l-294 -967h-302l-225 711h-4l-225 -711h-301l-295 967v20zM1198 1161h-229l-109 142l-106 -142h-230v21l187 278h301l186 -278v-21z" />
    <glyph glyph-name="Ycircumflex" unicode="&#x176;" horiz-adv-x="1236" 
d="M1239 1393v-21l-479 -811v-561h-285v561l-481 811v21h311l309 -574h4l310 574h311zM977 1536h-229l-130 162l-126 -162h-230v20l227 279h261l227 -279v-20z" />
    <glyph glyph-name="ycircumflex" unicode="&#x177;" horiz-adv-x="1085" 
d="M208 -209q66 0 106 25t63 84l41 110l-398 957v20h287l238 -672h6l225 672h287v-20l-424 -1088q-125 -315 -395 -315q-83 0 -162 18v219q59 -10 126 -10zM887 1161h-230l-108 142l-107 -142h-229v21l186 278h301l187 -278v-21z" />
    <glyph glyph-name="Ydieresis" unicode="&#x178;" horiz-adv-x="1236" 
d="M1239 1393v-21l-479 -811v-561h-285v561l-481 811v21h311l309 -574h4l310 574h311zM725 1677q0 66 44 109t117 43q72 0 116 -43t44 -109q0 -67 -44 -109t-116 -42t-117 42q-44 42 -44 109zM190 1677q0 66 44 109t117 43t117 -43t44 -109q0 -67 -44 -109t-117 -42t-117 42
t-44 109z" />
    <glyph glyph-name="Zacute" unicode="&#x179;" horiz-adv-x="1202" 
d="M1108 1393v-205l-682 -946v-4h682v-238h-1032v205l680 946v4h-637v238h989zM459 1536v20l121 279h311v-18l-170 -281h-262z" />
    <glyph glyph-name="zacute" unicode="&#x17a;" horiz-adv-x="966" 
d="M883 987v-145l-475 -627v-4h475v-211h-813v145l473 627v4h-443v211h783zM362 1161v21l162 278h291v-18l-211 -281h-242z" />
    <glyph glyph-name="Zdotaccent" unicode="&#x17b;" horiz-adv-x="1202" 
d="M1108 1393v-205l-682 -946v-4h682v-238h-1032v205l680 946v4h-637v238h989zM463 1677q0 66 44 109t117 43q72 0 116 -43t44 -109q0 -67 -44 -109t-116 -42t-117 42q-44 42 -44 109z" />
    <glyph glyph-name="zdotaccent" unicode="&#x17c;" horiz-adv-x="966" 
d="M883 987v-145l-475 -627v-4h475v-211h-813v145l473 627v4h-443v211h783zM336 1311q0 67 44 109t117 42t117 -43t43 -109q0 -66 -44 -108q-45 -43 -117 -43t-116 43t-44 109z" />
    <glyph glyph-name="Zcaron" unicode="&#x17d;" horiz-adv-x="1202" 
d="M1108 1393v-205l-682 -946v-4h682v-238h-1032v205l680 946v4h-637v238h989zM254 1835h229l129 -162l127 162h230v-20l-228 -279h-260l-227 279v20z" />
    <glyph glyph-name="zcaron" unicode="&#x17e;" horiz-adv-x="966" 
d="M883 987v-145l-475 -627v-4h475v-211h-813v145l473 627v4h-443v211h783zM160 1460h229l109 -141l106 141h230v-20l-187 -279h-301l-186 279v20z" />
    <glyph glyph-name="florin" unicode="&#x192;" 
d="M232 -209q60 0 87 21.5t39 89.5l121 682h-184l37 207h184l53 307q29 172 124 248.5t227 76.5t206 -14l-30 -227q-63 14 -124 14q-62 0 -90 -21.5t-38 -89.5l-51 -294h225l-37 -207h-225l-123 -695q-31 -172 -125 -248.5t-226 -76.5t-204 14l31 227q64 -14 123 -14z" />
    <glyph glyph-name="Aringacute" unicode="&#x1fa;" horiz-adv-x="1363" 
d="M766 1537q0 37 -23 59t-61 22t-62 -22t-24 -59q0 -38 24 -58q24 -21 62 -21t62 20q22 20 22 59zM678 1104l-191 -586h387l-190 586h-6zM930 1538q0 -55 -28 -104t-68 -78l526 -1354h-313l-93 287h-544l-95 -287h-311l524 1352q-41 29 -68 78q-28 49 -28 106q0 106 70 168
q44 39 105 53l63 115h297v-14l-114 -147q77 -58 77 -175z" />
    <glyph glyph-name="aringacute" unicode="&#x1fb;" horiz-adv-x="1112" 
d="M582 426q-252 0 -252 -120t131 -120q53 0 117.5 18.5t107.5 49.5v172h-104zM534 1018q213 0 317.5 -103.5t104.5 -296.5v-403q0 -23 5.5 -30t27.5 -7h72v-188q-82 -15 -153 -15q-132 0 -187 117h-4q-100 -80 -186.5 -101.5t-131.5 -21.5q-166 0 -249.5 88t-83.5 239
t114.5 229.5t372.5 78.5h133v45q0 114 -72.5 128t-95.5 14q-171 0 -328 -72l-65 211q196 88 409 88zM477 1577v16l115 209h297v-14l-162 -211h-250zM344 1296q0 108 69.5 165t180.5 57t179.5 -56.5t68.5 -165.5t-68.5 -164t-179.5 -55t-180.5 55.5t-69.5 163.5zM593 1368
q-85 0 -85 -70t85 -70t85 70t-85 70z" />
    <glyph glyph-name="AEacute" unicode="&#x1fc;" horiz-adv-x="1961" 
d="M915 516v598h-6l-342 -598h348zM1849 1393v-238h-649v-334h582v-237h-582v-346h655v-238h-940v287h-479l-170 -287h-305v20l825 1373h1063zM1165 1536v20l121 279h311v-18l-170 -281h-262z" />
    <glyph glyph-name="aeacute" unicode="&#x1fd;" horiz-adv-x="1701" 
d="M516 422q-192 0 -192 -123q0 -117 129 -117q93 0 168 66t75 174h-180zM1376 616q0 201 -200 201q-102 0 -155 -72q-50 -63 -54 -159h407q2 10 2 30zM508 600h184v49q0 94 -70 124q-33 14 -118 18q-157 0 -314 -72l-65 211q196 88 404 88q207 0 323 -133q128 133 340 133
t325 -121t111 -305q0 -84 -14 -178h-643q21 -222 241 -224q141 0 306 62l63 -199q-178 -84 -389 -84q-135 0 -223 49t-152 127q-77 -82 -138 -114q-116 -60 -272 -61t-249 86q-94 87 -92 225q0 171 118 245t324 74zM752 1161v21l161 278h291v-18l-211 -281h-241z" />
    <glyph glyph-name="Oslashacute" unicode="&#x1fe;" horiz-adv-x="1533" 
d="M393 696q0 -184 51 -288l500 733q-72 37 -176 38t-175 -36q-200 -104 -200 -447zM1141 696q0 188 -64 308l-506 -744q84 -47 191 -47q379 0 379 483zM276 160q-180 192 -180 525t169 536q169 202 503 202q186 0 324 -67l71 108l158 -106l-78 -113q195 -199 195 -534
t-168 -538q-168 -202 -502 -204q-190 0 -342 76l-72 -111l-159 105zM631 1536v20l121 279h311v-18l-170 -281h-262z" />
    <glyph glyph-name="oslashacute" unicode="&#x1ff;" horiz-adv-x="1193" 
d="M362 626q-18 -61 -18 -145t18 -137l357 440q-58 23 -116 23q-184 0 -241 -181zM588 180q188 0 244 182q18 60 18 146t-21 139l-360 -444q51 -23 119 -23zM997 850q121 -148 121 -366t-139 -367t-383 -148q-150 0 -264 60l-76 -99l-137 117l74 92q-119 145 -118 362
t140 367t381 150q156 0 260 -57l72 90l141 -111zM473 1161v21l162 278h291v-18l-211 -281h-242z" />
    <glyph glyph-name="uni0218" unicode="&#x218;" horiz-adv-x="1148" 
d="M936 1096q-180 88 -350 88q-90 0 -141 -44q-50 -44 -50 -108t30 -103q30 -40 114 -67l145 -47q200 -63 295 -158q94 -94 92 -247q0 -206 -139 -324q-140 -117 -378 -117t-476 133l88 224q124 -75 284 -107q54 -10 101 -10q229 0 229 176q0 68 -45 104t-151 72l-150 49
q-166 54 -248 154t-82 214q0 322 287 415q176 58 419 4q119 -26 212 -74zM727 -106v-21l-121 -319h-207v20l52 320h276z" />
    <glyph glyph-name="uni0219" unicode="&#x219;" horiz-adv-x="958" 
d="M621 274q0 45 -35 67t-101 38l-129 31q-187 44 -245 174q-23 49 -23 116q0 146 109 232t301 86t368 -72l-75 -196q-156 59 -295 59q-140 0 -140 -90q0 -43 33 -63t94 -38l125 -30q281 -67 281 -295q0 -148 -112 -236t-317 -88q-206 0 -394 94l81 199q163 -84 319 -84
q155 0 155 96zM645 -106v-21l-121 -319h-207v20l52 320h276z" />
    <glyph glyph-name="uni021A" unicode="&#x21a;" horiz-adv-x="1163" 
d="M1116 1393v-238h-393v-1155h-285v1155h-391v238h1069zM717 -106v-21l-121 -319h-207v20l51 320h277z" />
    <glyph glyph-name="uni021B" unicode="&#x21b;" horiz-adv-x="849" 
d="M223 258v518h-180v150l180 61v230h277v-230h282v-211h-282v-467q0 -114 116 -112q62 0 160 28v-225q-114 -29 -254 -30q-141 -1 -220 69t-79 219zM610 -106v-21l-121 -319h-206v20l51 320h276z" />
    <glyph glyph-name="uni0237" unicode="&#x237;" horiz-adv-x="534" 
d="M14 -209q61 0 88 31t27 98v1067h277v-1050q0 -193 -89.5 -283t-265.5 -90q-66 0 -143 14v223q45 -10 106 -10z" />
    <glyph glyph-name="circumflex" unicode="&#x2c6;" 
d="M940 1161h-229l-109 142l-106 -142h-230v21l187 278h301l186 -278v-21z" />
    <glyph glyph-name="caron" unicode="&#x2c7;" 
d="M266 1460h230l108 -141l107 141h229v-20l-186 -279h-301l-187 279v20z" />
    <glyph glyph-name="uni02C9" unicode="&#x2c9;" 
d="M307 1206v211h594v-211h-594z" />
    <glyph glyph-name="breve" unicode="&#x2d8;" 
d="M606 1380q177 0 268 70l87 -131q-107 -158 -357 -158q-249 0 -356 158l86 131q95 -70 272 -70z" />
    <glyph glyph-name="dotaccent" unicode="&#x2d9;" 
d="M444 1310.5q0 65.5 44 108.5t117 43t117 -43t44 -108.5t-44 -108.5t-117 -43t-117 43t-44 108.5z" />
    <glyph glyph-name="ring" unicode="&#x2da;" 
d="M354 1316q0 108 70 169t180.5 61t179 -61t68.5 -169t-68.5 -169.5t-179 -61.5t-180.5 61.5t-70 169.5zM626.5 1237q61.5 0 61.5 80q0 37 -22.5 58.5t-61.5 21.5t-62.5 -21.5t-23.5 -59.5t23.5 -58.5t85 -20.5z" />
    <glyph glyph-name="ogonek" unicode="&#x2db;" 
d="M817 -385q-84 -51 -195 -51q-104 0 -168.5 58t-64.5 153q0 149 107.5 208.5t150.5 77.5l98 -49q-44 -18 -93.5 -78.5t-49.5 -108.5t21.5 -65.5t73.5 -17.5t98 37z" />
    <glyph glyph-name="tilde" unicode="&#x2dc;" 
d="M438 1253q-78 0 -137 -71l-55 143q33 57 91.5 96t116.5 39t97 -14t73.5 -31.5t68.5 -32t96 -14.5t116 70l56 -140q-35 -66 -96 -101.5t-113 -35.5q-74 0 -169.5 46t-144.5 46z" />
    <glyph glyph-name="hungarumlaut" unicode="&#x2dd;" 
d="M592 1161v21l162 278h290v-18l-210 -281h-242zM162 1161v21l162 278h290v-18l-211 -281h-241z" />
    <glyph glyph-name="tonos" unicode="&#x384;" 
d="M489 1145v20l66 320h287v-19l-115 -321h-238z" />
    <glyph glyph-name="dieresistonos" unicode="&#x385;" 
d="M489 1094v20l60 340h280v-18l-108 -342h-232zM848 1241.5q0 65.5 44 108.5t117 43t116.5 -43t43.5 -108.5t-44.5 -108.5t-116.5 -43t-116 43t-44 108.5zM121 1241.5q0 65.5 44 108.5t117 43t116.5 -43t43.5 -108.5t-44 -108.5t-116 -43t-116.5 43t-44.5 108.5z" />
    <glyph glyph-name="Alphatonos" unicode="&#x386;" horiz-adv-x="1452" 
d="M764 1102l-191 -586h388l-191 586h-6zM1446 0h-313l-93 287h-544l-95 -287h-311l512 1393h332zM84 1053v20l59 320h291v-19l-108 -321h-242z" />
    <glyph glyph-name="anoteleia" unicode="&#x387;" horiz-adv-x="569" 
d="M111 596q0 78 47 127t127 49t127 -49t47 -127t-47 -127t-127 -49t-127 49t-47 127z" />
    <glyph glyph-name="Epsilontonos" unicode="&#x388;" horiz-adv-x="1484" 
d="M1372 1393v-238h-649v-334h582v-237h-582v-346h655v-238h-940v1393h934zM16 1053v20l60 320h291v-19l-109 -321h-242z" />
    <glyph glyph-name="Etatonos" unicode="&#x389;" horiz-adv-x="1755" 
d="M1309 584h-586v-584h-285v1393h285v-572h586v572h284v-1393h-284v584zM16 1053v20l60 320h291v-19l-109 -321h-242z" />
    <glyph glyph-name="Iotatonos" unicode="&#x38a;" horiz-adv-x="884" 
d="M723 0h-285v1393h285v-1393zM16 1053v20l60 320h291v-19l-109 -321h-242z" />
    <glyph glyph-name="Omicrontonos" unicode="&#x38c;" horiz-adv-x="1757" 
d="M319 696q0 322 169 525q169 202 503 202q333 0 508 -211q162 -194 162 -515t-168 -524q-168 -202 -502 -203q-333 -1 -503 201q-169 203 -169 525zM616 696q0 -345 200 -446q71 -37 174 -37q374 0 374 483q0 227 -83 345q-94 139 -289 139t-292 -139q-84 -121 -84 -345z
M25 1053v20l59 320h291v-19l-109 -321h-241z" />
    <glyph glyph-name="Upsilontonos" unicode="&#x38e;" horiz-adv-x="1722" 
d="M1724 1393v-21l-479 -811v-561h-284v561l-482 811v21h312l309 -574h4l309 574h311zM41 1053v20l59 320h291v-19l-108 -321h-242z" />
    <glyph glyph-name="Omegatonos" unicode="&#x38f;" horiz-adv-x="1808" 
d="M338 238h291q-195 110 -259 354q-24 88 -24 200t40 227q40 114 122 204q182 200 508 200t511 -200q163 -177 163 -437q0 -193 -80 -336t-205 -212h291v-238h-590v209q140 91 212 213t73 326q0 296 -199 396q-72 36 -175 36t-174 -36q-196 -100 -198 -393t167 -452
q52 -49 116 -90v-209h-590v238zM29 1053v20l59 320h291v-19l-109 -321h-241z" />
    <glyph glyph-name="iotadieresistonos" unicode="&#x390;" horiz-adv-x="620" 
d="M131 268v719h277v-694q0 -98 88 -96q46 0 88 14v-225q-82 -17 -168 -17q-137 0 -211 73t-74 226zM154 1094v20l59 340h281v-18l-109 -342h-231zM512 1241q0 66 44 109t117 43t117 -43t44 -109q0 -67 -44 -109t-117 -42t-117 42t-44 109zM-215 1241q0 66 44 109t117 43
q72 0 116 -43t44 -109q0 -67 -44 -109t-116 -42t-117 42q-44 42 -44 109z" />
    <glyph glyph-name="Alpha" unicode="&#x391;" horiz-adv-x="1368" 
d="M680 1102l-191 -586h388l-191 586h-6zM1362 0h-313l-93 287h-544l-95 -287h-311l512 1393h332z" />
    <glyph glyph-name="Beta" unicode="&#x392;" horiz-adv-x="1335" 
d="M446 827h213q184 0 219 84q13 31 13 78t-12 79q-23 61 -113 79q-45 8 -111 8h-209v-328zM1247 397q0 -197 -121 -297t-391 -100h-573v1393h510q254 0 385 -89t131 -288q0 -113 -53 -185t-127 -104v-4q239 -82 239 -326zM446 238h265q187 0 226 99q13 34 13 81
q0 94 -56 139t-196 45h-252v-364z" />
    <glyph glyph-name="Gamma" unicode="&#x393;" horiz-adv-x="1091" 
d="M162 0v1393h885v-238h-601v-1155h-284z" />
    <glyph glyph-name="uni0394" unicode="&#x394;" horiz-adv-x="1363" 
d="M680 1102l-297 -864h604l-301 864h-6zM1358 0h-1348v10l508 1383h332l508 -1383v-10z" />
    <glyph glyph-name="Epsilon" unicode="&#x395;" 
d="M1096 1393v-238h-650v-334h582v-237h-582v-346h656v-238h-940v1393h934z" />
    <glyph glyph-name="Zeta" unicode="&#x396;" horiz-adv-x="1202" 
d="M1108 1393v-205l-682 -946v-4h682v-238h-1032v205l680 946v4h-637v238h989z" />
    <glyph glyph-name="Eta" unicode="&#x397;" horiz-adv-x="1478" 
d="M1032 584h-586v-584h-284v1393h284v-572h586v572h285v-1393h-285v584z" />
    <glyph glyph-name="Theta" unicode="&#x398;" horiz-adv-x="1531" 
d="M1438 696.5q0 -321.5 -169 -524.5t-502 -203t-502 203t-169 524.5t168.5 524t502.5 202.5t502.5 -202.5t168.5 -524zM393 696.5q0 -224.5 90.5 -354t285.5 -129.5t283.5 130t88.5 414t-135.5 353.5t-238.5 69.5t-174 -37t-135.5 -129.5t-64.5 -317zM516 584v237h492v-237
h-492z" />
    <glyph glyph-name="Iota" unicode="&#x399;" horiz-adv-x="608" 
d="M446 0h-284v1393h284v-1393z" />
    <glyph glyph-name="Kappa" unicode="&#x39a;" horiz-adv-x="1316" 
d="M446 623v-623h-284v1393h284v-674h5l507 674h316v-21l-533 -690l559 -662v-20h-331l-518 623h-5z" />
    <glyph glyph-name="Lambda" unicode="&#x39b;" horiz-adv-x="1331" 
d="M319 0h-311l492 1393h331l492 -1393h-313l-342 1071h-6z" />
    <glyph glyph-name="Mu" unicode="&#x39c;" horiz-adv-x="1724" 
d="M1563 1393v-1393h-285v905h-4l-299 -555h-225l-299 555h-5v-905h-284v1393h274l424 -746h4l424 746h275z" />
    <glyph glyph-name="Nu" unicode="&#x39d;" horiz-adv-x="1507" 
d="M1061 432v961h285v-1393h-302l-591 961h-7v-961h-284v1393h301l592 -961h6z" />
    <glyph glyph-name="Xi" unicode="&#x39e;" horiz-adv-x="1202" 
d="M111 1139v254h974v-254h-974zM178 575v254h840v-254h-840zM1092 254v-254h-981v254h981z" />
    <glyph glyph-name="Omicron" unicode="&#x39f;" horiz-adv-x="1533" 
d="M96 696q0 322 169 525q169 202 503 202q333 0 508 -211q162 -194 162 -515t-168 -524q-168 -202 -502 -203q-333 -1 -503 201q-169 203 -169 525zM767 213q369 0 374 483q0 345 -199 447q-72 37 -175 37t-174 -37q-200 -104 -200 -447q0 -345 200 -446q71 -37 174 -37z
" />
    <glyph glyph-name="Pi" unicode="&#x3a0;" horiz-adv-x="1478" 
d="M1032 1155h-586v-1155h-284v1393h1155v-1393h-285v1155z" />
    <glyph glyph-name="Rho" unicode="&#x3a1;" horiz-adv-x="1220" 
d="M672 707q192 0 192 224t-192 224h-226v-448h226zM162 0v1393h530q240 0 355 -125q116 -125 114 -336q0 -329 -255 -428q-89 -35 -214 -35h-246v-469h-284z" />
    <glyph glyph-name="Sigma" unicode="&#x3a3;" horiz-adv-x="1226" 
d="M115 1393h1011v-238h-692l314 -438l-349 -479h727v-238h-1044v211l356 498l-323 471v213z" />
    <glyph glyph-name="Tau" unicode="&#x3a4;" horiz-adv-x="1163" 
d="M1116 1393v-238h-393v-1155h-285v1155h-391v238h1069z" />
    <glyph glyph-name="Upsilon" unicode="&#x3a5;" horiz-adv-x="1236" 
d="M1239 1393v-21l-479 -811v-561h-285v561l-481 811v21h311l309 -574h4l310 574h311z" />
    <glyph glyph-name="Phi" unicode="&#x3a6;" horiz-adv-x="1679" 
d="M1315 737q0 110 -74.5 201.5t-255.5 116.5v-719q264 39 297 165t33 236zM438.5 451q76.5 -92 261.5 -115v721q-183 -22 -260.5 -115.5t-77.5 -246t76.5 -244.5zM1461 301.5q-151 -151.5 -476 -178.5v-123h-285v121q-330 27 -482 179t-152 396q0 375 231 467t403 107v123
h285v-123q324 -27 475.5 -178.5t151.5 -395t-151 -395z" />
    <glyph glyph-name="Chi" unicode="&#x3a7;" horiz-adv-x="1277" 
d="M1235 1393v-21l-393 -674l393 -678v-20h-311l-283 526h-4l-283 -526h-311v20l391 678l-391 674v21h309l285 -525h4l287 525h307z" />
    <glyph glyph-name="Psi" unicode="&#x3a8;" horiz-adv-x="1560" 
d="M1176 885v508h284v-508q0 -274 -127 -420t-409 -158v-307h-285v307q-413 12 -476 226.5t-63 351.5v508h285v-508q0 -174 57.5 -250t196.5 -84v842h285v-842q137 8 194.5 85t57.5 249z" />
    <glyph glyph-name="uni03A9" unicode="&#x3a9;" horiz-adv-x="1579" 
d="M113 238h290q-192 108 -259 354q-58 213 17 427q85 243 331 349q127 55 300 55t300 -55q250 -108 332 -349q40 -115 40 -227q0 -203 -80 -345t-204 -209h290v-238h-589v209q138 90 211 215t73 324q0 296 -198 396q-72 36 -175 36q-193 0 -290 -132q-84 -112 -84 -309
t73 -318q73 -122 211 -212v-209h-589v238z" />
    <glyph glyph-name="Iotadieresis" unicode="&#x3aa;" horiz-adv-x="608" 
d="M446 0h-284v1393h284v-1393zM410 1677q0 66 44 109t116 43t117 -43q44 -43 44 -109q0 -67 -44 -109t-117 -42q-72 0 -116 42t-44 109zM-125 1677q0 66 44 109t117 43t117 -43t44 -109q0 -67 -44 -109t-117 -42t-117 42t-44 109z" />
    <glyph glyph-name="Upsilondieresis" unicode="&#x3ab;" horiz-adv-x="1236" 
d="M1239 1393v-21l-479 -811v-561h-285v561l-481 811v21h311l309 -574h4l310 574h311zM725 1677q0 66 44 109t117 43q72 0 116 -43t44 -109q0 -67 -44 -109t-116 -42t-117 42q-44 42 -44 109zM190 1677q0 66 44 109t117 43t117 -43t44 -109q0 -67 -44 -109t-117 -42t-117 42
t-44 109z" />
    <glyph glyph-name="alphatonos" unicode="&#x3ac;" horiz-adv-x="1271" 
d="M713 709q-65 82 -153 82t-143 -79t-56 -216t56 -218t144 -81q169 0 250 297q-36 133 -98 215zM78 494q0 119 35 216q72 200 244 271q87 37 175 37t142 -18q153 -52 213 -183h4l29 170h276l-139 -491l139 -496h-276l-29 170h-4q-60 -132 -213 -182q-55 -18 -142 -18
q-86 0 -174 36q-88 37 -149 106t-96 166t-35 216zM528 1145v20l66 320h287v-19l-115 -321h-238z" />
    <glyph glyph-name="epsilontonos" unicode="&#x3ad;" horiz-adv-x="1013" 
d="M393 696q0 -94 133 -94h262v-211h-278q-150 0 -150 -92q0 -104 203 -103t348 64l47 -215q-175 -76 -408 -76t-361 82q-113 76 -111 213q0 190 178 250v4q-143 54 -143 217q0 133 105 210t319 77t393 -68l-53 -211q-151 50 -317 51q-167 1 -167 -98zM479 1145v20l66 320
h286v-19l-114 -321h-238z" />
    <glyph glyph-name="etatonos" unicode="&#x3ae;" horiz-adv-x="1189" 
d="M1071 623v-1029h-276v1000q0 195 -177 197q-107 0 -212 -84v-707h-277v987h221l37 -96h4q141 127 316 127q174 0 269 -109t95 -286zM535 1145v20l65 320h287v-19l-115 -321h-237z" />
    <glyph glyph-name="iotatonos" unicode="&#x3af;" horiz-adv-x="620" 
d="M131 268v719h277v-694q0 -98 88 -96q46 0 88 14v-225q-82 -17 -168 -17q-137 0 -211 73t-74 226zM160 1145v20l65 320h287v-19l-115 -321h-237z" />
    <glyph glyph-name="upsilondieresistonos" unicode="&#x3b0;" horiz-adv-x="1157" 
d="M393 436q-1 -239 191 -239q96 -1 151 69t55 248t-88 473h283q62 -221 72 -321q10 -101 10 -177q0 -272 -126 -396q-125 -124 -355 -124t-350 117t-119 320v581h276v-551zM428 1145v20l66 320h286v-19l-114 -321h-238z" />
    <glyph glyph-name="alpha" unicode="&#x3b1;" horiz-adv-x="1271" 
d="M565 791q-45 0 -83 -20.5t-64.5 -58.5t-42 -93.5t-15.5 -158.5t56.5 -183t150.5 -80q163 0 244 297q-58 211 -129.5 254t-116.5 43zM532 -31q-86 0 -174 37t-149.5 105.5t-96 166t-34.5 275t129 321.5t342 144q125 0 211 -58t127 -143h4l29 170h276l-139 -491l139 -496
h-276l-29 170h-4q-60 -131 -164.5 -166t-190.5 -35z" />
    <glyph glyph-name="beta" unicode="&#x3b2;" horiz-adv-x="1202" 
d="M618 197q228 0 228 223q0 98 -66.5 156.5t-206.5 58.5h-61v211h59q78 0 123 47t45 132t-40 138.5t-121 53.5t-126.5 -50.5t-45.5 -191.5v-715q72 -63 212 -63zM406 47v-453h-277v1375q0 248 120 361.5t334 113.5t326.5 -107t112.5 -273t-75 -226t-107 -74v-4
q186 -51 237 -167.5t51 -210.5q0 -195 -128 -304t-309 -109t-281 78h-4z" />
    <glyph glyph-name="gamma" unicode="&#x3b3;" horiz-adv-x="1093" 
d="M670 -406h-277v412l-368 961v20h278l227 -706h5q185 353 247 706h279v-20q-85 -416 -391 -971v-402z" />
    <glyph glyph-name="delta" unicode="&#x3b4;" horiz-adv-x="1187" 
d="M834 438q0 111 -64 187.5t-192 167.5q-222 -146 -222 -353q0 -108 63.5 -175.5t164.5 -67.5q175 0 212.5 92t37.5 149zM753 1217q-180 0 -180 -86q0 -44 40 -79.5t100.5 -77.5t231.5 -164.5t171 -377.5q0 -184 -142.5 -323.5t-383.5 -139.5t-378.5 142t-137.5 326
q0 183 92 301t237 190q-41 41 -73.5 91t-32.5 122q0 145 115 224t278 79q89 0 138 -8.5t65 -10.5v-227q-91 19 -140 19z" />
    <glyph glyph-name="epsilon" unicode="&#x3b5;" horiz-adv-x="1013" 
d="M393 696q0 -94 133 -94h262v-211h-278q-150 0 -150 -97t203 -97t348 63l47 -215q-175 -76 -395 -76q-373 0 -429 115t-56 180q0 190 178 250v4q-143 54 -143 217q0 133 105.5 210t319.5 77t392 -68l-53 -211q-158 52 -321 52t-163 -99z" />
    <glyph glyph-name="zeta" unicode="&#x3b6;" horiz-adv-x="954" 
d="M932 1434v-179q-162 -182 -273.5 -308t-211 -256.5t-99.5 -225.5q0 -68 38 -110t95.5 -72.5t220 -94.5t162.5 -274q0 -164 -180 -295l-186 131q56 43 70 79t14 52q0 47 -38 78t-95.5 58.5t-220 101t-162.5 309.5q0 163 102 300.5t199.5 244t220.5 246.5v4h-479v211h823z
" />
    <glyph glyph-name="eta" unicode="&#x3b7;" horiz-adv-x="1189" 
d="M1071 623v-1029h-276v1000q0 197 -177 197q-100 0 -212 -84v-707h-277v987h221l37 -96h4q141 127 316 127q174 0 269 -108.5t95 -286.5z" />
    <glyph glyph-name="theta" unicode="&#x3b8;" horiz-adv-x="1202" 
d="M601 197q111 0 166.5 102.5t63.5 302.5h-464q19 -305 98.5 -355t135.5 -50zM834 805q-17 412 -233.5 412t-233.5 -412h467zM90 991.5q0 452.5 512 452.5q268 0 388 -190.5t120 -547t-120 -547t-388 -190.5q-397 0 -454.5 285t-57.5 737.5z" />
    <glyph glyph-name="iota" unicode="&#x3b9;" horiz-adv-x="620" 
d="M131 268v719h277v-694q0 -96 88 -96q44 0 88 14v-225q-82 -17 -168 -17q-137 0 -211 73t-74 226z" />
    <glyph glyph-name="kappa" unicode="&#x3ba;" horiz-adv-x="1093" 
d="M401 432v-432h-272v987h272v-471h5l350 471h297v-14l-385 -486l403 -473v-14h-305l-360 432h-5z" />
    <glyph glyph-name="lambda" unicode="&#x3bb;" horiz-adv-x="1087" 
d="M287 1444q225 0 311 -227l465 -1197v-20h-287l-225 672h-6l-238 -672h-287v20l398 957l-53 145q-35 95 -112 95q-40 0 -95 -11v219q72 19 129 19z" />
    <glyph glyph-name="uni03BC" unicode="&#x3bc;" horiz-adv-x="1187" 
d="M408 -406h-277v1393h277v-594q0 -96 38 -146t137 -50q98 0 201 84v706h277v-987h-223l-37 96h-4q-138 -124 -273 -127q-72 0 -116 33v-408z" />
    <glyph glyph-name="nu" unicode="&#x3bd;" horiz-adv-x="1097" 
d="M27 987h278l227 -706h5q185 353 247 706h279v-20q-91 -450 -379 -967h-299l-358 967v20z" />
    <glyph glyph-name="xi" unicode="&#x3be;" horiz-adv-x="991" 
d="M260 1223h-213v211h895v-211h-280q-196 0 -228.5 -78t-32.5 -124q0 -95 64.5 -150.5t198.5 -55.5h155v-211h-151q-243 0 -275.5 -70.5t-32.5 -125.5t42 -92t106.5 -63t138.5 -48.5t180.5 -79.5t106.5 -205q0 -88 -56.5 -168t-134.5 -133l-186 131q94 73 94 125
q0 51 -42 80t-106.5 52.5t-244.5 83.5t-180 296q0 137 74.5 218t189.5 118v4q-88 26 -155.5 98.5t-67.5 158.5q0 167 141 235v4z" />
    <glyph glyph-name="omicron" unicode="&#x3bf;" horiz-adv-x="1193" 
d="M979 117q-139 -149 -383 -148q-243 0 -381 149q-139 149 -139 374t139 376q139 150 381 150q243 0 390 -155q132 -140 132 -368q0 -229 -139 -378zM358 494q0 -143 64 -220t174 -77q172 0 222 167q17 56 18 130q0 144 -63 220q-63 75 -177 77q-169 0 -220 -167
q-18 -56 -18 -130z" />
    <glyph glyph-name="pi" unicode="&#x3c0;" horiz-adv-x="1269" 
d="M766 268v508h-285v-776h-276v776h-201v211h1235v-211h-197v-483q0 -96 88 -96q45 0 89 14v-225q-82 -17 -168 -17q-137 0 -211 73t-74 226z" />
    <glyph glyph-name="rho" unicode="&#x3c1;" horiz-adv-x="1189" 
d="M391 61v-467h-276v947q0 238 130 357.5t345 119.5q258 0 390 -146.5t132 -374.5q0 -229 -121 -378.5t-338 -149.5q-159 0 -258 92h-4zM590 197q239 0 239 297t-239 297q-92 0 -145.5 -63.5t-53.5 -180.5v-281q33 -29 87 -49t112 -20z" />
    <glyph glyph-name="sigma1" unicode="&#x3c2;" horiz-adv-x="952" 
d="M658 791q-296 0 -296 -312q0 -72 37 -114.5t93.5 -73.5t122 -57.5t158.5 -89t93 -224.5q0 -127 -71.5 -200.5t-108.5 -100.5l-186 131q56 43 70 79t14 52q0 45 -38 73t-93.5 54.5t-122 58t-159.5 120.5t-93 317q0 229 137 371.5t387 142.5q152 0 307 -60l-55 -210
q-116 43 -196 43z" />
    <glyph glyph-name="sigma" unicode="&#x3c3;" horiz-adv-x="1230" 
d="M358 446q0 -105 63.5 -177t174.5 -72q171 0 205.5 105.5t34.5 210t-63 176t-177 71.5q-169 0 -203.5 -104.5t-34.5 -209.5zM1118 446q0 -201 -139.5 -339t-384.5 -138t-381.5 145t-136.5 365.5t137 364t383 143.5h567v-211h-194v-4q72 -45 110.5 -137.5t38.5 -188.5z" />
    <glyph glyph-name="tau" unicode="&#x3c4;" horiz-adv-x="997" 
d="M629 -31q-164 0 -232.5 70t-68.5 219v518h-287v211h895v-211h-332v-467q0 -53 19 -82.5t79 -29.5t158 28v-225q-120 -31 -231 -31z" />
    <glyph glyph-name="upsilon" unicode="&#x3c5;" horiz-adv-x="1157" 
d="M393 436q-1 -239 191 -239q96 0 151.5 69.5t55.5 247.5t-89 473h283q65 -231 73.5 -326.5t8.5 -171.5q0 -272 -125.5 -396t-355.5 -124t-349.5 117t-119.5 320v581h276v-551z" />
    <glyph glyph-name="phi" unicode="&#x3c6;" horiz-adv-x="1482" 
d="M1088 714.5q-34 76.5 -99 76.5q-90 0 -102.5 -88.5t-12.5 -153.5v-348q197 35 222.5 143.5t25.5 201.5q0 92 -34 168.5zM360 502q0 -138 56.5 -211t181.5 -92v374q0 223 98.5 334t299.5 111t305 -150.5t104 -343.5q0 -345 -193.5 -433.5t-337.5 -104.5v-392h-276v388
q-267 27 -390.5 164.5t-123.5 354.5q0 216 113 486h284q-121 -255 -121 -485z" />
    <glyph glyph-name="chi" unicode="&#x3c7;" horiz-adv-x="1087" 
d="M1075 987v-20l-354 -674l354 -678v-21h-289l-239 506h-2l-240 -506h-289v21l353 678l-353 674v20h287l242 -504h2l244 504h284z" />
    <glyph glyph-name="psi" unicode="&#x3c8;" horiz-adv-x="1515" 
d="M1430 489q0 -514 -529 -514v-381h-276v381q-246 0 -377 112t-131 319v581h276v-561q0 -133 60.5 -184.5t171.5 -51.5v1244h276v-1244q105 0 178.5 75.5t73.5 244.5t-98 477h284q68 -214 79.5 -318t11.5 -180z" />
    <glyph glyph-name="omega" unicode="&#x3c9;" horiz-adv-x="1689" 
d="M1606 489q0 -272 -120 -396t-331 -124q-115 0 -191.5 61.5t-117.5 141.5h-4q-39 -80 -117 -141.5t-193 -61.5q-211 0 -329.5 124t-118.5 396q0 183 60.5 312t88.5 186h295v-20q-76 -123 -122 -240t-46 -255t49 -206.5t125 -68.5t124.5 59t48.5 180v299h276v-311
q0 -115 49 -171t125 -56t124 69.5t48 206.5t-46 254t-122 240v20h295q112 -220 131 -321t19 -177z" />
    <glyph glyph-name="iotadieresis" unicode="&#x3ca;" horiz-adv-x="620" 
d="M131 268v719h277v-694q0 -98 88 -96q46 0 88 14v-225q-82 -17 -168 -17q-137 0 -211 73t-74 226zM342 1311q0 67 44 109t117 42t117 -43t44 -109t-44 -108q-44 -43 -117 -43t-117 43t-44 109zM-109 1311q0 67 44 109t117 42t117 -43t44 -109t-44 -108q-44 -43 -117 -43
t-117 43t-44 109z" />
    <glyph glyph-name="upsilondieresis" unicode="&#x3cb;" horiz-adv-x="1157" 
d="M393 436q-1 -239 191 -239q96 -1 151 69t55 248t-88 473h283q62 -221 72 -321q10 -101 10 -177q0 -272 -126 -396q-125 -124 -355 -124t-350 117t-119 320v581h276v-551zM635 1311q0 67 44 109t117 42q72 0 116 -43t44 -109t-44 -108q-44 -43 -116 -43t-117 43
q-44 43 -44 109zM184 1311q0 67 44 109t117 42t117 -43t44 -109t-44 -108q-44 -43 -117 -43t-117 43t-44 109z" />
    <glyph glyph-name="omicrontonos" unicode="&#x3cc;" horiz-adv-x="1193" 
d="M979 117q-139 -149 -383 -148q-243 0 -381 149q-139 149 -139 374t139 376q139 150 381 150q243 0 390 -155q132 -140 132 -368q0 -229 -139 -378zM358 494q0 -143 64 -220t174 -77q172 0 222 167q17 56 18 130q0 144 -63 220q-63 75 -177 77q-169 0 -220 -167
q-18 -56 -18 -130zM494 1145v20l65 320h287v-19l-115 -321h-237z" />
    <glyph glyph-name="upsilontonos" unicode="&#x3cd;" horiz-adv-x="1157" 
d="M393 436q-1 -239 191 -239q96 -1 151 69t55 248t-88 473h283q62 -221 72 -321q10 -101 10 -177q0 -272 -126 -396q-125 -124 -355 -124t-350 117t-119 320v581h276v-551zM453 1145v20l65 320h287v-19l-115 -321h-237z" />
    <glyph glyph-name="omegatonos" unicode="&#x3ce;" horiz-adv-x="1689" 
d="M707 735h276v-311q0 -115 49 -171t125 -56q76 -1 124 69t48 207t-46 254t-122 240v20h295q116 -228 137 -355q12 -67 13 -143q0 -272 -120 -396t-331 -124q-115 -1 -191 61t-118 142h-4q-39 -80 -117 -141t-193 -62q-212 0 -330 124t-118 396q0 146 36 242t113 256h295
v-20q-166 -269 -168 -478q0 -153 48 -223t126 -70q76 0 124 60q48 59 49 180v299zM743 1145v20l66 320h287v-19l-115 -321h-238z" />
    <glyph glyph-name="uni0400" unicode="&#x400;" 
d="M1096 1393v-238h-650v-334h582v-237h-582v-346h656v-238h-940v1393h934zM348 1835h311l121 -279v-20h-262l-170 281v18z" />
    <glyph glyph-name="uni0401" unicode="&#x401;" 
d="M1096 1393v-238h-650v-334h582v-237h-582v-346h656v-238h-940v1393h934zM731 1677q0 66 44 109t117 43t117 -43t44 -109q0 -67 -44 -109t-117 -42t-117 42t-44 109zM197 1677q0 66 44 109q45 43 117 43t116 -43t44 -109q0 -67 -44 -109t-117 -42t-117 42t-43 109z" />
    <glyph glyph-name="uni0402" unicode="&#x402;" horiz-adv-x="1447" 
d="M891 864q250 0 375 -129t125 -342q0 -260 -145.5 -443t-192.5 -237l-213 158q170 194 212 322.5t42 199.5q0 234 -166.5 234t-317.5 -39v-588h-284v1155h-281v238h967v-238h-402v-330q144 39 281 39z" />
    <glyph glyph-name="uni0403" unicode="&#x403;" horiz-adv-x="1140" 
d="M1096 1393v-238h-650v-1155h-284v1393h934zM494 1536v20l120 279h312v-18l-170 -281h-262z" />
    <glyph glyph-name="uni0404" unicode="&#x404;" horiz-adv-x="1236" 
d="M792 -31q-343 0 -520.5 197.5t-177.5 529.5t176.5 529.5t501.5 197.5q203 0 395 -90l-75 -225q-162 72 -321 72t-253 -99.5t-119 -265.5h547v-237h-547q25 -168 119 -266.5t253 -98.5t321 72l75 -226q-191 -90 -375 -90z" />
    <glyph glyph-name="uni0405" unicode="&#x405;" horiz-adv-x="1148" 
d="M936 1096q-180 88 -350 88q-90 0 -141 -44q-50 -44 -50 -108t30 -103q30 -40 114 -67l145 -47q200 -63 295 -158q94 -94 92 -247q0 -206 -139 -324q-140 -117 -378 -117t-476 133l88 224q124 -75 284 -107q54 -10 101 -10q229 0 229 176q0 68 -45 104t-151 72l-150 49
q-166 54 -248 154t-82 214q0 322 287 415q176 58 419 4q119 -26 212 -74z" />
    <glyph glyph-name="uni0406" unicode="&#x406;" horiz-adv-x="608" 
d="M446 0h-284v1393h284v-1393z" />
    <glyph glyph-name="uni0407" unicode="&#x407;" horiz-adv-x="608" 
d="M446 0h-284v1393h284v-1393zM410 1677q0 66 44 109t116 43t117 -43q44 -43 44 -109q0 -67 -44 -109t-117 -42q-72 0 -116 42t-44 109zM-125 1677q0 66 44 109t117 43t117 -43t44 -109q0 -67 -44 -109t-117 -42t-117 42t-44 109z" />
    <glyph glyph-name="uni0408" unicode="&#x408;" horiz-adv-x="987" 
d="M143 319q115 -106 221 -106q187 0 187 229v951h285v-969q0 -227 -122 -341t-330 -114t-370 146z" />
    <glyph glyph-name="uni0409" unicode="&#x409;" horiz-adv-x="2066" 
d="M1698 438q0 205 -209 205h-268v-405h268q209 0 209 200zM1221 1393v-512h288q242 0 364 -113t122 -328t-122 -327.5t-364 -112.5h-573v1155h-363l-26 -426q-28 -465 -131.5 -592t-207.5 -142t-185 -15v243q55 0 99 14.5t93 94.5t66 413l28 648h912z" />
    <glyph glyph-name="uni040A" unicode="&#x40a;" horiz-adv-x="2103" 
d="M1735 438q0 205 -209 205h-269v-405h269q209 0 209 200zM1257 1393v-512h289q242 0 364 -113t122 -328t-122 -327.5t-364 -112.5h-573v643h-527v-643h-284v1393h284v-512h527v512h284z" />
    <glyph glyph-name="uni040B" unicode="&#x40b;" horiz-adv-x="1476" 
d="M610 897q156 59 355 59q198 0 308.5 -108.5t110.5 -288.5v-559h-284v522q0 195 -215 195q-136 0 -275 -53v-664h-284v1155h-281v238h967v-238h-402v-258z" />
    <glyph glyph-name="uni040C" unicode="&#x40c;" horiz-adv-x="1316" 
d="M446 623v-623h-284v1393h284v-674h5l507 674h316v-21l-533 -690l559 -662v-20h-331l-518 623h-5zM545 1536v20l121 279h311v-18l-170 -281h-262z" />
    <glyph glyph-name="uni040D" unicode="&#x40d;" horiz-adv-x="1486" 
d="M1325 1393v-1393h-285v981h-6l-551 -981h-321v1393h284v-981h7l551 981h321zM449 1835h311l121 -279v-20h-263l-169 281v18z" />
    <glyph glyph-name="uni040E" unicode="&#x40e;" horiz-adv-x="1165" 
d="M152 0v238h63q101 0 137 16t58 42q20 26 39 69l20 51l-444 956v21h313l264 -668h6l252 668h301v-21l-434 -1034q-85 -201 -187 -269q-103 -69 -302 -69h-86zM967 1696q-107 -158 -357 -158q-249 0 -356 158l86 131q95 -70 273 -70t268 70z" />
    <glyph glyph-name="uni040F" unicode="&#x40f;" horiz-adv-x="1458" 
d="M162 0v1393h284v-1155h566v1155h284v-1393h-440l-22 -289h-207l-25 289h-440z" />
    <glyph glyph-name="uni0410" unicode="&#x410;" horiz-adv-x="1368" 
d="M680 1102l-191 -586h388l-191 586h-6zM1362 0h-313l-93 287h-544l-95 -287h-311l512 1393h332z" />
    <glyph glyph-name="uni0411" unicode="&#x411;" horiz-adv-x="1298" 
d="M924 438q0 205 -209 205h-269v-405h269q209 0 209 200zM1114 1393v-238h-668v-274h289q242 0 364 -113t122 -328t-122 -327.5t-364 -112.5h-573v1393h952z" />
    <glyph glyph-name="uni0412" unicode="&#x412;" horiz-adv-x="1335" 
d="M446 827h213q184 0 219 84q13 31 13 78t-12 79q-23 61 -113 79q-45 8 -111 8h-209v-328zM1247 397q0 -197 -121 -297t-391 -100h-573v1393h510q254 0 385 -89t131 -288q0 -113 -53 -185t-127 -104v-4q239 -82 239 -326zM446 238h265q187 0 226 99q13 34 13 81
q0 94 -56 139t-196 45h-252v-364z" />
    <glyph glyph-name="uni0413" unicode="&#x413;" horiz-adv-x="1140" 
d="M1096 1393v-238h-650v-1155h-284v1393h934z" />
    <glyph glyph-name="uni0414" unicode="&#x414;" horiz-adv-x="1495" 
d="M977 238v917h-387l-21 -319q-25 -447 -116 -598h524zM1262 1393v-1155h159l-41 -527h-206l-21 289h-877l-18 -289h-207l-41 527h127q113 141 135.5 317t28.5 283l29 555h932z" />
    <glyph glyph-name="uni0415" unicode="&#x415;" 
d="M1096 1393v-238h-650v-334h582v-237h-582v-346h656v-238h-940v1393h934z" />
    <glyph glyph-name="uni0416" unicode="&#x416;" horiz-adv-x="2027" 
d="M16 0v20l562 664l-535 688v21h319l504 -674h4v674h287v-674h4l504 674h320v-21l-535 -688l561 -664v-20h-332l-518 623h-4v-623h-287v623h-4l-518 -623h-332z" />
    <glyph glyph-name="uni0417" unicode="&#x417;" horiz-adv-x="1146" 
d="M506 213q110 0 184 47.5t74 140.5t-59 138t-199 45h-238v237h238q121 0 171 51.5t50 131t-53 128t-196 48.5t-308 -70l-82 221q198 92 437 92t369 -104.5t130 -281.5t-86 -237.5t-123 -72.5v-4q104 -37 175 -124t71 -224q0 -187 -143.5 -296.5t-406.5 -109.5t-456 105
l76 225q164 -86 375 -86z" />
    <glyph glyph-name="uni0418" unicode="&#x418;" horiz-adv-x="1486" 
d="M1325 1393v-1393h-285v981h-6l-551 -981h-321v1393h284v-981h7l551 981h321z" />
    <glyph glyph-name="uni0419" unicode="&#x419;" horiz-adv-x="1486" 
d="M1116 1696q-107 -158 -355 -158t-358 158l86 131q95 -70 273 -70t268 70zM1325 1393v-1393h-285v981h-6l-551 -981h-321v1393h284v-981h7l551 981h321z" />
    <glyph glyph-name="uni041A" unicode="&#x41a;" horiz-adv-x="1316" 
d="M446 623v-623h-284v1393h284v-674h5l507 674h316v-21l-533 -690l559 -662v-20h-331l-518 623h-5z" />
    <glyph glyph-name="uni041B" unicode="&#x41b;" horiz-adv-x="1464" 
d="M1018 1155h-445l-26 -426q-28 -465 -131.5 -592t-207.5 -142t-185 -15v243q55 0 99 14.5t93 94.5t66 413l28 648h994v-1393h-285v1155z" />
    <glyph glyph-name="uni041C" unicode="&#x41c;" horiz-adv-x="1724" 
d="M1563 1393v-1393h-285v905h-4l-299 -555h-225l-299 555h-5v-905h-284v1393h274l424 -746h4l424 746h275z" />
    <glyph glyph-name="uni041D" unicode="&#x41d;" horiz-adv-x="1478" 
d="M1032 584h-586v-584h-284v1393h284v-572h586v572h285v-1393h-285v584z" />
    <glyph glyph-name="uni041E" unicode="&#x41e;" horiz-adv-x="1533" 
d="M96 696q0 322 169 525q169 202 503 202q333 0 508 -211q162 -194 162 -515t-168 -524q-168 -202 -502 -203q-333 -1 -503 201q-169 203 -169 525zM767 213q369 0 374 483q0 345 -199 447q-72 37 -175 37t-174 -37q-200 -104 -200 -447q0 -345 200 -446q71 -37 174 -37z
" />
    <glyph glyph-name="uni041F" unicode="&#x41f;" horiz-adv-x="1478" 
d="M1032 1155h-586v-1155h-284v1393h1155v-1393h-285v1155z" />
    <glyph glyph-name="uni0420" unicode="&#x420;" horiz-adv-x="1220" 
d="M672 707q192 0 192 224t-192 224h-226v-448h226zM162 0v1393h530q240 0 355 -125q116 -125 114 -336q0 -329 -255 -428q-89 -35 -214 -35h-246v-469h-284z" />
    <glyph glyph-name="uni0421" unicode="&#x421;" horiz-adv-x="1239" 
d="M792 -31q-343 0 -521 198q-177 198 -177 528q0 331 177 530q177 198 501 198q203 0 395 -90l-75 -225q-158 70 -330 71t-272 -129q-99 -130 -99 -351t99 -353q99 -133 271 -133t331 72l75 -226q-191 -90 -375 -90z" />
    <glyph glyph-name="uni0422" unicode="&#x422;" horiz-adv-x="1163" 
d="M1116 1393v-238h-393v-1155h-285v1155h-391v238h1069z" />
    <glyph glyph-name="uni0423" unicode="&#x423;" horiz-adv-x="1165" 
d="M152 0v238h63q101 0 137.5 16t57 42t39.5 69l20 51l-444 956v21h313l264 -668h6l252 668h301v-21l-434 -1034q-85 -200 -188.5 -269t-300.5 -69h-86z" />
    <glyph glyph-name="uni0424" unicode="&#x424;" horiz-adv-x="1679" 
d="M1315 696q0 229 -170 315q-63 32 -160 44v-719q265 39 314 231q16 59 16 129zM439 451q77 -92 261 -115v721q-183 -22 -260 -116q-78 -93 -78 -245t77 -245zM1612 696q0 -374 -338 -511q-119 -48 -289 -62v-123h-285v121q-330 27 -483 180t-151 395q0 375 342 511
q121 48 292 63v123h285v-123q325 -27 483 -187q144 -144 144 -387z" />
    <glyph glyph-name="uni0425" unicode="&#x425;" horiz-adv-x="1277" 
d="M1235 1393v-21l-393 -674l393 -678v-20h-311l-283 526h-4l-283 -526h-311v20l391 678l-391 674v21h309l285 -525h4l287 525h307z" />
    <glyph glyph-name="uni0426" unicode="&#x426;" horiz-adv-x="1529" 
d="M162 0v1393h284v-1155h566v1155h284v-1155h160l-41 -527h-207l-20 289h-1026z" />
    <glyph glyph-name="uni0427" unicode="&#x427;" horiz-adv-x="1329" 
d="M528 375q-198 0 -308.5 109t-110.5 288v621h284v-584q0 -195 215 -195q118 0 186 21.5t89 32.5v725h284v-1393h-284v434q-156 -59 -355 -59z" />
    <glyph glyph-name="uni0428" unicode="&#x428;" horiz-adv-x="2103" 
d="M162 0v1393h284v-1155h463v1155h285v-1155h463v1155h285v-1393h-1780z" />
    <glyph glyph-name="uni0429" unicode="&#x429;" horiz-adv-x="2174" 
d="M162 0v1393h284v-1155h463v1155h285v-1155h463v1155h285v-1155h159l-41 -527h-207l-20 289h-1671z" />
    <glyph glyph-name="uni042A" unicode="&#x42a;" horiz-adv-x="1441" 
d="M1073 438q0 205 -209 205h-268v-405h268q209 0 209 200zM45 1393h551v-512h289q242 0 363.5 -113t121.5 -328t-122 -327.5t-363 -112.5h-574v1155h-266v238z" />
    <glyph glyph-name="uni042B" unicode="&#x42b;" horiz-adv-x="1810" 
d="M1649 0h-285v1393h285v-1393zM715 643h-269v-405h269q207 0 209 200q0 205 -209 205zM446 1393v-512h289q242 0 364 -113t122 -328q0 -216 -122 -328t-364 -112h-573v1393h284z" />
    <glyph glyph-name="uni042C" unicode="&#x42c;" horiz-adv-x="1292" 
d="M924 438q0 205 -209 205h-269v-405h269q209 0 209 200zM446 1393v-512h289q242 0 364 -113t122 -328t-122 -327.5t-364 -112.5h-573v1393h284z" />
    <glyph glyph-name="uni042D" unicode="&#x42d;" horiz-adv-x="1239" 
d="M448 1423q345 0 521 -198t176 -529q0 -332 -177 -529.5t-501 -197.5q-203 0 -395 90l75 226q162 -72 321 -72t253 98.5t119 266.5h-547v237h547q-25 166 -119 265.5t-252 99.5t-322 -72l-75 225q192 90 376 90z" />
    <glyph glyph-name="uni042E" unicode="&#x42e;" horiz-adv-x="2174" 
d="M2081 696.5q0 -321.5 -169 -524.5t-487 -203q-317 0 -483.5 166.5t-198.5 448.5h-297v-584h-284v1393h284v-572h299q29 270 199 436t467 166q333 0 501.5 -202.5t168.5 -524zM1036 696.5q0 -224.5 90.5 -354t285.5 -129.5t283.5 130t88.5 414t-135.5 353.5t-238.5 69.5
t-174 -37t-135.5 -129.5t-64.5 -317z" />
    <glyph glyph-name="uni042F" unicode="&#x42f;" horiz-adv-x="1357" 
d="M911 764v391h-288q-96 0 -148.5 -55.5t-52.5 -139t52 -140t149 -56.5h288zM911 0v526h-180l-381 -526h-301v33l381 512q-154 37 -229.5 146.5t-75.5 269.5q0 199 118.5 315.5t364.5 116.5h588v-1393h-285z" />
    <glyph glyph-name="uni0430" unicode="&#x430;" horiz-adv-x="1112" 
d="M582 426q-252 0 -252 -120t131 -120q53 0 118 18t107 50v172h-104zM534 1018q214 0 318 -104t104 -296v-403q0 -23 6 -30t27 -7h72v-188q-74 -13 -148 -14q-136 -1 -192 116h-4q-149 -119 -317 -121q-166 -2 -250 86t-84 239t114 230q114 78 373 78h133v45
q0 134 -168 142q-171 0 -328 -72l-65 211q196 88 409 88z" />
    <glyph glyph-name="uni0431" unicode="&#x431;" horiz-adv-x="1220" 
d="M620 696q-110 0 -174.5 -63.5t-64.5 -179.5q0 -181 92.5 -218.5t146.5 -37.5q109 0 172.5 69t63.5 186q0 118 -63 181t-173 63zM694 924q210 0 327.5 -131t117.5 -339t-134.5 -346.5t-390.5 -138.5q-257 0 -386.5 156t-129.5 434q0 412 101.5 602.5t339.5 241.5
q109 23 311.5 38t236.5 21v-250q-31 -8 -90 -12t-126.5 -9l-135 -10t-129.5 -17q-132 -24 -184 -108.5t-57 -260.5h8q47 53 130 91t191 38z" />
    <glyph glyph-name="uni0432" unicode="&#x432;" horiz-adv-x="1095" 
d="M397 590h154q125 0 136 41t11 75.5t-31 62.5t-116 28h-154v-207zM612 987q359 0 359 -272q0 -145 -137 -209v-2q76 -23 129 -78t53 -147q0 -279 -383 -279h-504v987h483zM397 197h199q88 0 117.5 31.5t29.5 76.5t-29.5 78t-117.5 33h-199v-219z" />
    <glyph glyph-name="uni0433" unicode="&#x433;" horiz-adv-x="911" 
d="M872 987v-211h-475v-776h-268v987h743z" />
    <glyph glyph-name="uni0434" unicode="&#x434;" horiz-adv-x="1245" 
d="M795 215v561h-281l-10 -151q-16 -232 -35.5 -305.5t-34.5 -104.5h361zM1063 987v-772h113l-39 -461h-187l-26 246h-648l-22 -246h-186l-41 461h110q76 88 90.5 219t18.5 187l18 366h799z" />
    <glyph glyph-name="uni0435" unicode="&#x435;" horiz-adv-x="1103" 
d="M780 616q0 201 -207 201q-102 0 -157 -72q-52 -63 -58 -159h420q2 8 2 15v15zM985 53q-178 -84 -413 -84t-365 150q-129 149 -129 373q0 223 130 375q130 151 359 151t348 -120t117 -306q0 -84 -14 -178h-660q12 -161 149 -208q44 -15 99 -16q151 0 316 62z" />
    <glyph glyph-name="uni0436" unicode="&#x436;" horiz-adv-x="1662" 
d="M23 0v14l403 473l-385 486v14h297l352 -467h4v467h275v-467h4l352 467h297v-14l-385 -486l403 -473v-14h-305l-362 432h-4v-432h-275v432h-4l-362 -432h-305z" />
    <glyph glyph-name="uni0437" unicode="&#x437;" horiz-adv-x="995" 
d="M633 294q0 97 -144 97h-268v211h252q72 0 99.5 23.5t27.5 70.5q0 99 -162 99q-97 0 -183.5 -19.5t-117.5 -32.5l-53 211q169 68 378 68q210 0 314.5 -77t104.5 -210q0 -163 -142 -217v-4q176 -61 176 -250q0 -295 -475 -295q-219 0 -385 76l47 215q140 -63 335 -63
q196 0 196 97z" />
    <glyph glyph-name="uni0438" unicode="&#x438;" horiz-adv-x="1204" 
d="M1075 987v-987h-268v618h-6l-369 -618h-303v987h268v-618h6l369 618h303z" />
    <glyph glyph-name="uni0439" unicode="&#x439;" horiz-adv-x="1204" 
d="M1075 987v-987h-268v618h-6l-369 -618h-303v987h268v-618h6l369 618h303zM613 1380q178 0 268 70l86 -131q-107 -158 -357 -158q-249 0 -356 158l86 131q95 -70 273 -70z" />
    <glyph glyph-name="uni043A" unicode="&#x43a;" horiz-adv-x="1093" 
d="M401 432v-432h-272v987h272v-471h5l350 471h297v-14l-385 -486l403 -473v-14h-305l-360 432h-5z" />
    <glyph glyph-name="uni043B" unicode="&#x43b;" horiz-adv-x="1218" 
d="M819 776h-303l-22 -274q-23 -303 -128.5 -409.5t-324.5 -106.5v223q94 0 143 63t60 252l24 463h822v-987h-271v776z" />
    <glyph glyph-name="uni043C" unicode="&#x43c;" horiz-adv-x="1400" 
d="M1272 987v-987h-268v565h-5l-190 -329h-219l-189 329h-4v-565h-268v987h260l309 -514h4l310 514h260z" />
    <glyph glyph-name="uni043D" unicode="&#x43d;" horiz-adv-x="1191" 
d="M795 385h-398v-385h-268v987h268v-387h398v387h268v-987h-268v385z" />
    <glyph glyph-name="uni043E" unicode="&#x43e;" horiz-adv-x="1193" 
d="M979 117q-139 -149 -383 -148q-243 0 -381 149q-139 149 -139 374t139 376q139 150 381 150q243 0 390 -155q132 -140 132 -368q0 -229 -139 -378zM358 494q0 -143 64 -220t174 -77q172 0 222 167q17 56 18 130q0 144 -63 220q-63 75 -177 77q-169 0 -220 -167
q-18 -56 -18 -130z" />
    <glyph glyph-name="uni043F" unicode="&#x43f;" horiz-adv-x="1191" 
d="M795 776h-398v-776h-268v987h934v-987h-268v776z" />
    <glyph glyph-name="uni0440" unicode="&#x440;" horiz-adv-x="1200" 
d="M689 1018q207 0 320 -151t112 -375q-1 -223 -113 -373t-318 -150q-104 0 -169 35t-111 68h-4v-478h-277v1393h203l39 -88h4q51 39 129 79t185 40zM583 791q-83 0 -177 -60v-475q92 -59 198 -59q230 0 234 297q0 212 -128 275q-44 22 -127 22z" />
    <glyph glyph-name="uni0441" unicode="&#x441;" horiz-adv-x="980" 
d="M78 494q0 240 136 382q138 142 388 142q152 0 307 -60l-55 -210q-285 93 -413 -25q-81 -75 -81 -229q0 -228 167 -281q50 -16 127 -16t200 43l55 -211q-159 -58 -296 -59q-138 -1 -235 36q-196 75 -265 272q-35 97 -35 216z" />
    <glyph glyph-name="uni0442" unicode="&#x442;" horiz-adv-x="940" 
d="M899 987v-211h-297v-776h-268v776h-293v211h858z" />
    <glyph glyph-name="uni0443" unicode="&#x443;" horiz-adv-x="1085" 
d="M208 -209q66 0 106 25t63 84l41 110l-398 957v20h287l238 -672h6l225 672h287v-20l-424 -1088q-125 -315 -395 -315q-83 0 -162 18v219q59 -10 126 -10z" />
    <glyph glyph-name="uni0444" unicode="&#x444;" horiz-adv-x="1771" 
d="M1260 1018q222 0 326 -146.5t104 -377.5q0 -361 -152 -443t-230 -82q-114 0 -166.5 18.5t-113.5 55.5h-4v-449h-276v449h-5q-88 -54 -144.5 -64t-134.5 -10t-230 81.5t-152 442.5q0 362 151.5 443.5t280.5 81.5t229 -66h5v482h276v-482h4q106 66 232 66zM365 417.5
q0 -220.5 200 -220.5q103 0 183 39v516q-84 39 -158 39q-73 0 -114.5 -21.5t-76 -76.5t-34.5 -275.5zM1182 197q73 0 114 21.5t65.5 60t35 94t10.5 160t-48.5 181.5t-149.5 77t-185 -39v-516q85 -39 158 -39z" />
    <glyph glyph-name="uni0445" unicode="&#x445;" horiz-adv-x="1103" 
d="M43 0v20l313 474l-313 473v20h297l211 -346h4l209 346h297v-20l-313 -473l313 -474v-20h-297l-209 344h-4l-211 -344h-297z" />
    <glyph glyph-name="uni0446" unicode="&#x446;" horiz-adv-x="1247" 
d="M129 0v987h268v-778h381v778h271v-778h141l-41 -455h-186l-27 246h-807z" />
    <glyph glyph-name="uni0447" unicode="&#x447;" horiz-adv-x="1064" 
d="M84 561v426h268v-405q0 -43 32 -71t128 -28t156 35v469h268v-987h-268v311q-100 -45 -255 -45q-156 0 -242.5 84.5t-86.5 210.5z" />
    <glyph glyph-name="uni0448" unicode="&#x448;" horiz-adv-x="1669" 
d="M129 0v987h268v-778h303v778h269v-778h301v778h270v-987h-1411z" />
    <glyph glyph-name="uni0449" unicode="&#x449;" horiz-adv-x="1738" 
d="M129 0v987h268v-778h303v778h269v-778h301v778h270v-778h141l-41 -455h-186l-27 246h-1298z" />
    <glyph glyph-name="uni044A" unicode="&#x44a;" horiz-adv-x="1163" 
d="M510 209h188q100 0 111.5 49t11.5 82.5t-27 68.5t-96 35h-188v-235zM1104 328.5q0 -328.5 -389 -328.5h-473v776h-195v211h463v-330h205q389 0 389 -328.5z" />
    <glyph glyph-name="uni044B" unicode="&#x44b;" horiz-adv-x="1513" 
d="M397 209h189q100 0 117 77q5 22 6 40q0 76 -61 107q-24 11 -62 11h-189v-235zM602 655q389 1 389 -327t-389 -328h-473v987h268v-332h205zM1108 0v987h276v-987h-276z" />
    <glyph glyph-name="uni044C" unicode="&#x44c;" horiz-adv-x="1050" 
d="M397 209h189q98 0 110.5 49t12.5 81.5t-26.5 68.5t-96.5 36h-189v-235zM602 655q389 0 389 -327.5t-389 -327.5h-473v987h268v-332h205z" />
    <glyph glyph-name="uni044D" unicode="&#x44d;" horiz-adv-x="1001" 
d="M366 1010q150 0 250.5 -38t169 -105.5t103.5 -163t35 -271t-142 -315.5t-397 -140q-176 0 -317 66l71 211q133 -53 237 -53q103 0 168.5 49t88.5 133h-387v217h387q-23 84 -87.5 136t-166.5 52t-240 -55l-71 213q148 64 298 64z" />
    <glyph glyph-name="uni044E" unicode="&#x44e;" horiz-adv-x="1730" 
d="M895 458q0 -109 63 -185t175 -76q170 0 204.5 111.5t34.5 220.5t-63.5 185.5t-175.5 76.5q-169 0 -203.5 -112t-34.5 -221zM1516 117q-139 -148 -367 -148q-229 0 -364 117t-164 299h-224v-385h-268v987h268v-387h224q30 186 163.5 302t362.5 116q230 0 369 -147.5
t139 -376.5t-139 -377z" />
    <glyph glyph-name="uni044F" unicode="&#x44f;" horiz-adv-x="1122" 
d="M725 776h-211q-66 0 -96.5 -35.5t-30.5 -83t31 -84t96 -36.5h211v239zM725 0v326h-109l-284 -326h-283v23l285 321q-121 33 -175.5 118t-54.5 176q0 349 396 349h493v-987h-268z" />
    <glyph glyph-name="uni0450" unicode="&#x450;" horiz-adv-x="1103" 
d="M780 616q0 201 -207 201q-102 0 -157 -72q-52 -63 -58 -159h420q2 8 2 15v15zM985 53q-178 -84 -413 -84t-365 150q-129 149 -129 373q0 223 130 375q130 151 359 151t348 -120t117 -306q0 -84 -14 -178h-660q12 -161 149 -208q44 -15 99 -16q151 0 316 62zM289 1460h291
l161 -278v-21h-241l-211 281v18z" />
    <glyph glyph-name="uni0451" unicode="&#x451;" horiz-adv-x="1103" 
d="M780 616q0 201 -207 201q-102 0 -157 -72q-52 -63 -58 -159h420q2 8 2 15v15zM985 53q-178 -84 -413 -84t-365 150q-129 149 -129 373q0 223 130 375q130 151 359 151t348 -120t117 -306q0 -84 -14 -178h-660q12 -161 149 -208q44 -15 99 -16q151 0 316 62zM649 1311
q0 67 44 109t117 42t117 -43t44 -109t-44 -108q-44 -43 -117 -43t-117 43t-44 109zM199 1311q0 67 44 109q45 42 117 42t116 -43t44 -109t-44 -108q-44 -43 -117 -43t-117 43t-43 109z" />
    <glyph glyph-name="uni0452" unicode="&#x452;" horiz-adv-x="1171" 
d="M410 905q126 113 314 113q69 0 211 -63.5t142 -438.5t-205 -838l-227 105q70 166 110 362.5t40 360.5t-44 224.5t-133 60.5q-123 0 -212 -95v-696h-277v1106h-102v211h102v117h277v-117h215v-211h-215v-201h4z" />
    <glyph glyph-name="uni0453" unicode="&#x453;" horiz-adv-x="911" 
d="M872 987v-211h-475v-776h-268v987h743zM367 1161v21l161 278h291v-18l-211 -281h-241z" />
    <glyph glyph-name="uni0454" unicode="&#x454;" horiz-adv-x="997" 
d="M78 494q0 238 142.5 377t395.5 139q171 0 318 -64l-72 -213q-139 55 -240 55q-102 0 -166.5 -52t-86.5 -136h387v-217h-387q23 -84 88 -133t169 -49t236 53l72 -211q-143 -66 -296 -66t-253 38t-203.5 139.5t-103.5 339.5z" />
    <glyph glyph-name="uni0455" unicode="&#x455;" horiz-adv-x="958" 
d="M621 274q0 45 -35 67t-101 38l-129 31q-187 44 -245 174q-23 49 -23 116q0 146 109 232t301 86t368 -72l-75 -196q-156 59 -295 59q-140 0 -140 -90q0 -43 33 -63t94 -38l125 -30q281 -67 281 -295q0 -148 -112 -236t-317 -88q-206 0 -394 94l81 199q163 -84 319 -84
q155 0 155 96z" />
    <glyph glyph-name="uni0456" unicode="&#x456;" horiz-adv-x="534" 
d="M109 1311q0 67 44 109q45 42 117 42t116 -43t44 -109t-44 -108q-44 -43 -117 -43t-117 43t-43 109zM129 0v987h277v-987h-277z" />
    <glyph glyph-name="uni0457" unicode="&#x457;" horiz-adv-x="534" 
d="M129 0v987h277v-987h-277zM334 1311q0 67 44 109t117 42t117 -43t43 -109q0 -66 -44 -108q-45 -43 -117 -43t-116 43t-44 109zM-117 1311q0 67 44 109t117 42t117 -43t44 -109t-44 -108q-44 -43 -117 -43t-117 43t-44 109z" />
    <glyph glyph-name="uni0458" unicode="&#x458;" horiz-adv-x="534" 
d="M109 1311q0 67 44 109q45 42 117 42t116 -43t44 -109t-44 -108q-44 -43 -117 -43t-117 43t-43 109zM14 -209q61 0 88 31t27 98v1067h277v-1050q0 -373 -355 -373q-66 0 -143 14v223q45 -10 106 -10z" />
    <glyph glyph-name="uni0459" unicode="&#x459;" horiz-adv-x="1669" 
d="M1016 209h188q100 0 111.5 49t11.5 82.5t-27 68.5t-96 35h-188v-235zM1221 655q389 0 389 -327.5t-389 -327.5h-473v776h-232l-22 -274q-23 -303 -128.5 -409.5t-324.5 -106.5v223q94 0 143 63t60 252l24 463h748v-332h205z" />
    <glyph glyph-name="uni045A" unicode="&#x45a;" horiz-adv-x="1681" 
d="M1028 209h189q99 0 110.5 49t11.5 82.5t-26 68.5t-96 35h-189v-235zM1233 655q389 0 389 -327.5t-389 -327.5h-473v444h-363v-444h-268v987h268v-332h363v332h268v-332h205z" />
    <glyph glyph-name="uni045B" unicode="&#x45b;" horiz-adv-x="1189" 
d="M795 594q0 195 -177 197q-63 0 -120 -28q-58 -28 -92 -67v-696h-277v1106h-102v211h102v117h277v-117h215v-211h-215v-201h4q43 38 124 76q81 37 171 37q176 0 271 -110t95 -287v-621h-276v594z" />
    <glyph glyph-name="uni045C" unicode="&#x45c;" horiz-adv-x="1093" 
d="M401 432v-432h-272v987h272v-471h5l350 471h297v-14l-385 -486l403 -473v-14h-305l-360 432h-5zM446 1161v21l162 278h291v-18l-211 -281h-242z" />
    <glyph glyph-name="uni045D" unicode="&#x45d;" horiz-adv-x="1204" 
d="M1075 987v-987h-268v618h-6l-369 -618h-303v987h268v-618h6l369 618h303zM305 1460h291l162 -278v-21h-242l-211 281v18z" />
    <glyph glyph-name="uni045E" unicode="&#x45e;" horiz-adv-x="1085" 
d="M208 -209q66 0 106 25t63 84l41 110l-398 957v20h287l238 -672h6l225 672h287v-20l-424 -1088q-125 -315 -395 -315q-83 0 -162 18v219q59 -10 126 -10zM566 1380q178 0 268 70l86 -131q-106 -158 -356 -158q-249 0 -357 158l86 131q95 -70 273 -70z" />
    <glyph glyph-name="uni045F" unicode="&#x45f;" horiz-adv-x="1177" 
d="M129 0v987h268v-778h381v778h271v-987h-338l-27 -246h-186l-29 246h-340z" />
    <glyph glyph-name="uni0462" unicode="&#x462;" horiz-adv-x="1462" 
d="M1102 438q0 205 -209 205h-268v-405h268q209 0 209 200zM625 1393v-103h397v-237h-397v-172h288q242 0 364 -113t122 -328t-122 -327.5t-364 -112.5h-573v1053h-285v237h285v103h285z" />
    <glyph glyph-name="uni0463" unicode="&#x463;" horiz-adv-x="1155" 
d="M510 209h188q100 0 111.5 49t11.5 82.5t-27 68.5t-96 35h-188v-235zM715 655q389 0 389 -327.5t-389 -327.5h-473v776h-195v211h195v449h268v-449h326v-211h-326v-121h205z" />
    <glyph glyph-name="uni0472" unicode="&#x472;" horiz-adv-x="1531" 
d="M652.5 1180q-203.5 0 -253.5 -365h734q-33 261 -155 313t-325.5 52zM767 213q172 0 258.5 99t109.5 278h-736q26 -271 152.5 -324t215.5 -53zM1438 696.5q0 -321.5 -169 -524.5t-502 -203t-502 203t-169 524.5t168.5 524t502.5 202.5t502.5 -202.5t168.5 -524z" />
    <glyph glyph-name="uni0473" unicode="&#x473;" horiz-adv-x="1193" 
d="M596 791q-133 0 -176 -74t-53 -123h458q-20 98 -79.5 147.5t-149.5 49.5zM367 395q40 -198 229 -198q88 0 148.5 49t80.5 149h-458zM979.5 116.5q-138.5 -147.5 -383.5 -147.5t-382.5 149.5t-137.5 375.5q0 227 138 375.5t382 148.5t383 -147t139 -377t-138.5 -377.5z
" />
    <glyph glyph-name="uni0474" unicode="&#x474;" horiz-adv-x="1390" 
d="M1356 1180q-59 0 -93 -29t-57 -96l-356 -1055h-346l-492 1372v21h310l354 -1094h6l274 844q51 150 137.5 215t262.5 65v-243z" />
    <glyph glyph-name="uni0475" unicode="&#x475;" horiz-adv-x="1132" 
d="M1085 788q-75 0 -106 -90l-244 -698h-346l-364 973v14h297l239 -725h6l176 526q42 118 117.5 170t224.5 52v-222z" />
    <glyph glyph-name="uni0490" unicode="&#x490;" horiz-adv-x="1134" 
d="M446 1155v-1155h-284v1393h643l35 288h221l35 -526h-650z" />
    <glyph glyph-name="uni0491" unicode="&#x491;" horiz-adv-x="907" 
d="M397 776v-776h-268v987h498l35 217h190l20 -428h-475z" />
    <glyph glyph-name="uni0E3F" unicode="&#xe3f;" 
d="M807 989q0 78 -29.5 115t-89.5 47v-320q59 10 89 45t30 113zM426 827h102v328h-102v-328zM426 238h102v364h-102v-364zM836 417q0 85 -33 128t-115 53v-358q78 8 113 50t35 127zM1126 397q0 -195 -101 -292t-337 -105v-221h-160v221h-383v1393h383v184h160v-188
q186 -14 286.5 -103.5t100.5 -269.5q0 -113 -46 -184.5t-109 -104.5v-4q206 -82 206 -326z" />
    <glyph glyph-name="Wgrave" unicode="&#x1e80;" horiz-adv-x="2076" 
d="M39 1393h305l236 -1086h4l288 1086h332l289 -1086h4l234 1086h307v-21l-379 -1372h-338l-281 1079h-2l-280 -1079h-340l-379 1372v21zM743 1835h312l121 -279v-20h-263l-170 281v18z" />
    <glyph glyph-name="wgrave" unicode="&#x1e81;" horiz-adv-x="1720" 
d="M37 987h276l183 -684h4l211 684h299l211 -684h4l182 684h276v-20l-294 -967h-302l-225 711h-4l-225 -711h-301l-295 967v20zM530 1460h291l162 -278v-21h-242l-211 281v18z" />
    <glyph glyph-name="Wacute" unicode="&#x1e82;" horiz-adv-x="2076" 
d="M39 1393h305l236 -1086h4l288 1086h332l289 -1086h4l234 1086h307v-21l-379 -1372h-338l-281 1079h-2l-280 -1079h-340l-379 1372v21zM905 1536v20l121 279h311v-18l-170 -281h-262z" />
    <glyph glyph-name="wacute" unicode="&#x1e83;" horiz-adv-x="1720" 
d="M37 987h276l183 -684h4l211 684h299l211 -684h4l182 684h276v-20l-294 -967h-302l-225 711h-4l-225 -711h-301l-295 967v20zM735 1161v21l162 278h291v-18l-211 -281h-242z" />
    <glyph glyph-name="Wdieresis" unicode="&#x1e84;" horiz-adv-x="2076" 
d="M39 1393h305l236 -1086h4l288 1086h332l289 -1086h4l234 1086h307v-21l-379 -1372h-338l-281 1079h-2l-280 -1079h-340l-379 1372v21zM1147 1677q0 66 44 109t117 43q72 0 116 -43t44 -109q0 -67 -44 -109t-116 -42t-117 42q-44 42 -44 109zM612 1677q0 66 44 109t117 43
t117 -43t44 -109q0 -67 -44 -109t-117 -42t-117 42t-44 109z" />
    <glyph glyph-name="wdieresis" unicode="&#x1e85;" horiz-adv-x="1720" 
d="M37 987h276l183 -684h4l211 684h299l211 -684h4l182 684h276v-20l-294 -967h-302l-225 711h-4l-225 -711h-301l-295 967v20zM926 1311q0 67 44 109t116 42t117 -43q44 -43 44 -109t-44 -108q-44 -43 -117 -43q-72 0 -116 43t-44 109zM475 1311q0 67 44 109t117 42
t117 -43t44 -109t-44 -108q-44 -43 -117 -43t-117 43t-44 109z" />
    <glyph glyph-name="uni1E9E" unicode="&#x1e9e;" horiz-adv-x="1425" 
d="M709 1178q-133 0 -206 -97.5t-73 -283.5v-797h-285v780q0 461 214 552t370 91q225 0 481 -143v-199l-225 -280v-4q169 -20 268 -120t99 -284t-131.5 -304t-350.5 -120q-116 0 -245 21v237q123 -20 187 -20q125 0 182 53.5t57 142.5t-49.5 146t-159.5 57h-150v180l254 336
q-104 56 -237 56z" />
    <glyph glyph-name="Ygrave" unicode="&#x1ef2;" horiz-adv-x="1236" 
d="M1239 1393v-21l-479 -811v-561h-285v561l-481 811v21h311l309 -574h4l310 574h311zM317 1835h312l121 -279v-20h-263l-170 281v18z" />
    <glyph glyph-name="ygrave" unicode="&#x1ef3;" horiz-adv-x="1085" 
d="M208 -209q66 0 106 25t63 84l41 110l-398 957v20h287l238 -672h6l225 672h287v-20l-424 -1088q-125 -315 -395 -315q-83 0 -162 18v219q59 -10 126 -10zM221 1460h291l162 -278v-21h-242l-211 281v18z" />
    <glyph glyph-name="endash" unicode="&#x2013;" horiz-adv-x="1196" 
d="M127 451v211h942v-211h-942z" />
    <glyph glyph-name="emdash" unicode="&#x2014;" horiz-adv-x="1884" 
d="M127 451v211h1630v-211h-1630z" />
    <glyph glyph-name="quoteleft" unicode="&#x2018;" horiz-adv-x="573" 
d="M84 772v21l205 600h207v-21l-136 -600h-276z" />
    <glyph glyph-name="quoteright" unicode="&#x2019;" horiz-adv-x="567" 
d="M508 1393v-21l-205 -600h-207v21l135 600h277z" />
    <glyph glyph-name="quotesinglbase" unicode="&#x201a;" horiz-adv-x="552" 
d="M442 291v-21l-204 -600h-207v21l135 600h276z" />
    <glyph glyph-name="quotedblleft" unicode="&#x201c;" horiz-adv-x="1001" 
d="M512 772v21l205 600h207v-21l-136 -600h-276zM84 772v21l205 600h207v-21l-136 -600h-276z" />
    <glyph glyph-name="quotedblright" unicode="&#x201d;" horiz-adv-x="997" 
d="M508 1393v-21l-205 -600h-207v21l135 600h277zM938 1393v-21l-205 -600h-207v21l136 600h276z" />
    <glyph glyph-name="quotedblbase" unicode="&#x201e;" horiz-adv-x="983" 
d="M442 291v-21l-204 -600h-207v21l135 600h276zM872 291v-21l-204 -600h-207v21l135 600h276z" />
    <glyph glyph-name="dagger" unicode="&#x2020;" horiz-adv-x="948" 
d="M385 987v447h182v-447h326v-174h-326v-1219h-182v1219h-330v174h330z" />
    <glyph glyph-name="daggerdbl" unicode="&#x2021;" horiz-adv-x="1011" 
d="M418 987v447h182v-447h324v-174h-324v-598h324v-174h-324v-447h-182v447h-330v174h330v598h-330v174h330z" />
    <glyph glyph-name="bullet" unicode="&#x2022;" horiz-adv-x="770" 
d="M154 596q0 102 62.5 167.5t169 65.5t168.5 -65.5t62 -167.5t-62 -168t-168.5 -66t-169 66t-62.5 168z" />
    <glyph glyph-name="ellipsis" unicode="&#x2026;" horiz-adv-x="1587" 
d="M104 145q0 78 48 127q48 50 127 50q80 0 127 -50t47 -127q0 -78 -47 -127t-127 -49q-79 0 -127 49t-48 127zM621 145q0 78 47 127q47 50 127 50t127 -50t47 -127q0 -78 -47 -127t-127 -49t-127 49t-47 127zM1135 145q0 78 47 127q47 50 127 50t127 -50t47 -127
q0 -78 -47 -127t-127 -49t-127 49t-47 127z" />
    <glyph glyph-name="perthousand" unicode="&#x2030;" horiz-adv-x="2381" 
d="M2320 359q0 -173 -85 -275t-231 -101q-145 1 -230 104q-84 103 -83 273t85 275q84 104 227 102q76 0 134 -26q117 -55 161 -197q22 -70 22 -155zM2003 571q-113 -1 -113 -211t113 -210q121 0 121 210t-121 211zM696 1031q0 -173 -85 -274q-85 -102 -231 -102
q-145 0 -229 104q-85 104 -84 273q1 170 84 274q83 103 229 103t231 -103q85 -102 85 -275zM379 1243q-113 0 -113 -211t113 -211q121 0 121 211t-121 211zM1591 359q0 -173 -85 -275t-231 -101q-145 1 -230 104q-84 103 -83 273q0 170 84 275q84 104 228 102q76 0 134 -26
q118 -55 162 -197q22 -70 21 -155zM1274 571q-113 -1 -113 -211t113 -210q121 0 121 210t-121 211zM260 0v20l934 1373h213v-21l-934 -1372h-213z" />
    <glyph glyph-name="guilsinglleft" unicode="&#x2039;" horiz-adv-x="657" 
d="M70 565l329 449l170 -101l-219 -362l221 -361l-172 -98l-329 449v24z" />
    <glyph glyph-name="guilsinglright" unicode="&#x203a;" horiz-adv-x="659" 
d="M590 541l-330 -449l-170 101l219 362l-221 360l172 99l330 -449v-24z" />
    <glyph glyph-name="fraction" unicode="&#x2044;" horiz-adv-x="327" 
d="M-410 0v20l934 1373h213v-21l-934 -1372h-213z" />
    <glyph glyph-name="uni2070" unicode="&#x2070;" horiz-adv-x="735" 
d="M597 1003q-85 -102 -231 -102t-229 102q-84 102 -84 273t83 275t230 104t232 -104q84 -102 84 -274t-85 -274zM365 1489q-113 0 -113 -211t113 -211q122 0 121 211t-121 211z" />
    <glyph glyph-name="uni2074" unicode="&#x2074;" horiz-adv-x="696" 
d="M569 1417v-190h86v-156h-86v-153h-186v153h-352v139l184 428h191l-166 -409v-2h143v190h186z" />
    <glyph glyph-name="uni2075" unicode="&#x2075;" horiz-adv-x="643" 
d="M272 1229q-66 0 -161 -10l-25 26l37 393h442v-157h-276l-8 -92h32q123 1 201 -53t78 -177t-83 -191t-232 -67q-149 0 -246 35l43 166q87 -37 177 -37q91 1 116 23t24 63q0 78 -119 78z" />
    <glyph glyph-name="uni2076" unicode="&#x2076;" horiz-adv-x="677" 
d="M449 1159q0 47 -26 72t-73 24q-108 0 -106 -96q0 -98 102 -97t103 97zM434 1397q40 -1 77 -15q80 -30 116 -117q18 -45 18 -103q0 -116 -80 -187q-80 -72 -221 -73t-218 75t-78 179t63 194l196 288h217v-10l-190 -244v-2q60 15 100 15z" />
    <glyph glyph-name="uni2077" unicode="&#x2077;" horiz-adv-x="620" 
d="M389 1481h-352v157h557v-145l-305 -575h-201v10l301 551v2z" />
    <glyph glyph-name="uni2078" unicode="&#x2078;" horiz-adv-x="704" 
d="M352 1366q47 0 70 20q22 20 22 52t-22 54t-70 22q-47 0 -67 -22t-21 -52q0 -74 88 -74zM512 1294q141 -42 141 -190q0 -86 -83 -144t-219 -59q-136 0 -218 58q-82 59 -82 145q0 147 144 190v2q-113 42 -113 170q0 78 74 134t195 55q122 1 197 -55t75 -134
q0 -124 -111 -170v-2zM352 1055q112 0 111 83q0 83 -113 83t-110 -82q0 -84 112 -84z" />
    <glyph glyph-name="uni2079" unicode="&#x2079;" horiz-adv-x="677" 
d="M334 1495q-102 0 -101 -100q0 -95 103 -95t100 95q0 100 -102 100zM258 1159q-48 -1 -88 15q-82 33 -117 117q-18 45 -18 103q0 116 80 187q80 72 221 73t218 -75t78 -179t-63 -194l-196 -288h-217v12l190 241v3q-40 -15 -88 -15z" />
    <glyph glyph-name="uni207A" unicode="&#x207a;" horiz-adv-x="542" 
d="M348 1364h139v-158h-139v-137h-158v137h-135v158h135v137h158v-137z" />
    <glyph glyph-name="uni207B" unicode="&#x207b;" horiz-adv-x="587" 
d="M78 1206v158h432v-158h-432z" />
    <glyph glyph-name="uni207D" unicode="&#x207d;" horiz-adv-x="366" 
d="M219 758q-174 258 -174 499t115 442q31 54 59 97l115 -59q-47 -102 -80 -210t-33 -250t33 -250t80 -212z" />
    <glyph glyph-name="uni207E" unicode="&#x207e;" horiz-adv-x="366" 
d="M324 1276q0 -214 -115 -421q-31 -54 -59 -97l-115 57q47 104 80 212t33 250t-33 250t-80 210l115 59q174 -258 174 -520z" />
    <glyph glyph-name="uni2080" unicode="&#x2080;" horiz-adv-x="735" 
d="M598 -158q-85 -102 -231 -102t-230 102t-84 272t83 276q83 104 230 104t232 -104q84 -102 84 -274q0 -171 -84 -274zM252 117q0 -211 113 -211q122 0 121 210t-121 212q-113 0 -113 -211z" />
    <glyph glyph-name="uni2081" unicode="&#x2081;" horiz-adv-x="534" 
d="M31 186v172l266 119h143v-721h-188v520h-4l-199 -90h-18z" />
    <glyph glyph-name="uni2082" unicode="&#x2082;" horiz-adv-x="671" 
d="M326 -88h288v-156h-563v144l301 239q52 41 53 91t-23 76t-71 26t-83 -26t-70 -60l-109 123q108 122 277 125q120 0 200 -63t78 -177q0 -76 -40 -130t-99 -99l-139 -109v-4z" />
    <glyph glyph-name="uni2083" unicode="&#x2083;" horiz-adv-x="663" 
d="M295 -96q119 0 119 76q0 35 -26 46t-85 11h-143v158h141q94 0 92 67q0 68 -102 69t-185 -34l-53 149q121 46 253 47t208 -53t76 -140q0 -87 -37 -123t-78 -42v-2q135 -41 135 -180q0 -96 -74 -155q-75 -58 -235 -58t-266 55l49 154q92 -45 211 -45z" />
    <glyph glyph-name="uni2084" unicode="&#x2084;" horiz-adv-x="696" 
d="M569 256v-190h86v-156h-86v-154h-186v154h-352v139l184 428h191l-166 -409v-2h143v190h186z" />
    <glyph glyph-name="uni2085" unicode="&#x2085;" horiz-adv-x="641" 
d="M270 68q-77 0 -161 -11l-25 27l37 393h442v-158h-276l-8 -92h32q123 0 201 -53t78 -176t-83 -191q-83 -67 -232 -67t-246 35l43 166q87 -37 177 -37q91 0 116 22q25 23 24 64q0 78 -119 78z" />
    <glyph glyph-name="uni2086" unicode="&#x2086;" horiz-adv-x="679" 
d="M449 -2q0 47 -26 72t-73 24q-108 0 -106 -96q0 -98 102 -97t103 97zM579 177q66 -66 66 -179t-81 -185q-81 -73 -222 -73t-217 76t-77 179t63 193l196 289h217v-10l-190 -244v-2q161 40 245 -44z" />
    <glyph glyph-name="uni2087" unicode="&#x2087;" horiz-adv-x="618" 
d="M387 319h-352v158h557v-145l-305 -576h-201v11l301 550v2z" />
    <glyph glyph-name="uni2088" unicode="&#x2088;" horiz-adv-x="704" 
d="M352 205q47 0 70 20q22 21 22 53t-22 54t-70 20q-47 0 -67 -22t-21 -51q0 -74 88 -74zM512 133q141 -42 141 -190q0 -87 -83 -145t-219 -58t-218 58t-82 144q0 147 144 191v2q-113 42 -113 170q0 77 74 133t195 56q122 0 197 -56t75 -133q0 -127 -111 -170v-2zM352 -106
q63 0 87 24t24 60q0 34 -24 58t-87 23q-114 0 -112 -82q0 -83 112 -83z" />
    <glyph glyph-name="uni2089" unicode="&#x2089;" horiz-adv-x="679" 
d="M334 334q-102 0 -101 -101q0 -94 103 -94t100 94q0 101 -102 101zM35 235q0 114 80 185q80 72 221 73t218 -75t78 -179t-63 -194l-196 -289h-217v13l190 241v2q-37 -14 -87 -14q-97 0 -160 61q-64 62 -64 176z" />
    <glyph glyph-name="uni208D" unicode="&#x208d;" horiz-adv-x="368" 
d="M219 -403q-174 258 -174 499t115 442q31 54 59 97l115 -60q-47 -101 -80 -209t-33 -250t33 -250t80 -212z" />
    <glyph glyph-name="uni208E" unicode="&#x208e;" horiz-adv-x="368" 
d="M324 115q0 -214 -115 -421q-31 -54 -59 -97l-115 57q47 104 80 212t33 250t-33 250t-80 209l115 60q174 -258 174 -520z" />
    <glyph glyph-name="colonmonetary" unicode="&#x20a1;" 
d="M375 731q0 -224 67 -342l140 754q-102 -53 -154.5 -169t-52.5 -243zM764 1180h-35l-172 -916q66 -35 94 -41l178 953q-40 4 -65 4zM748 -31h-5l-36 -190h-140l39 203q-38 6 -98 22l-41 -225h-141l53 284q-147 90 -224 253t-77 380q0 300 143.5 491.5t413.5 227.5l31 162
h139l-31 -154q67 -5 100 -10l31 164h142l-37 -195q58 -17 127 -49l-76 -225q-27 10 -50.5 19.5t-45.5 17.5l-174 -932q130 8 270 72l76 -226q-188 -90 -389 -90z" />
    <glyph glyph-name="lira" unicode="&#x20a4;" horiz-adv-x="1165" 
d="M463 238h600v-238h-934v197q113 64 127 119t14 87v21h-161v211h139q-11 83 -17 127h-122v211h108v24q0 223 120 324.5t340 101.5t417 -92l-76 -225q-170 74 -320 74q-94 0 -139 -43t-45 -140v-24h383v-211h-362l18 -127h344v-211h-334q-19 -103 -100 -182v-4z" />
    <glyph glyph-name="uni20A6" unicode="&#x20a6;" horiz-adv-x="1398" 
d="M381 1186l10 -234h86l-90 234h-6zM1012 207l-11 239h-88l93 -239h6zM399 770l7 -141h198l-55 141h-150zM842 629h153l-4 141h-203zM1249 446v-446h-399l-174 446h-268v-446h-261v446h-98v183h98v141h-98v182h98v441h402l170 -441h270v441h260v-441h101v-182h-101v-141
h101v-183h-101z" />
    <glyph glyph-name="uni20A8" unicode="&#x20a8;" 
d="M997 0h-327l-533 535v176h230q215 0 247 118h-508l62 207h446q-32 119 -247 119h-261l62 238h954l-61 -207h-289v-4q93 -58 125 -146h225l-61 -207h-154q-37 -215 -172 -268t-223 -61l485 -467v-33z" />
    <glyph glyph-name="uni20AA" unicode="&#x20aa;" horiz-adv-x="1536" 
d="M1446 1395v-858q0 -285 -117.5 -411t-415.5 -126h-432v995h244v-757h188q145 0 196.5 58.5t51.5 233.5v865h285zM821 397v465q0 176 -52 234.5t-196 58.5h-188v-1155h-285v1393h473q289 0 370 -97.5t101.5 -199t20.5 -240.5v-459h-244z" />
    <glyph glyph-name="dong" unicode="&#x20ab;" 
d="M152 0v180h870v-180h-870zM578 872q-211 0 -211 -204.5t211 -204.5q59 0 170 35v340q-85 34 -170 34zM510 1096q119 0 233 -64h5v131h-197v180h197v91h276v-91h90v-180h-90v-897h-219l-27 56h-4q-132 -80 -285 -80q-190 0 -297.5 122t-107.5 304t108 305t318 123z" />
    <glyph glyph-name="Euro" unicode="&#x20ac;" 
d="M791 213q150 0 296 72l76 -226q-180 -90 -372 -90q-240 0 -387.5 120t-202.5 329h-168l63 207h70q-2 18 -2 23v52q0 48 2 68h-133l61 207h107q55 209 202.5 328.5t387.5 119.5q192 0 372 -90l-76 -225q-148 72 -271 72q-236 0 -322 -205h540l-59 -207h-526q-3 -30 -3 -37
v-47q0 -41 3 -59h495l-59 -207h-389q92 -205 295 -205z" />
    <glyph glyph-name="uni20AD" unicode="&#x20ad;" 
d="M1174 0h-328l-346 580h-56v-580h-284v580h-109v211h109v602h284v-602h56l334 602h317v-21l-356 -581h305v-211h-299l373 -560v-20z" />
    <glyph glyph-name="uni20AE" unicode="&#x20ae;" 
d="M745 0h-284v319l-197 -67v182l197 68v125l-197 -68v182l197 68v346h-391v238h1069v-238h-394v-250l199 70v-182l-199 -70v-125l199 70v-183l-199 -69v-416z" />
    <glyph glyph-name="uni20B1" unicode="&#x20b1;" 
d="M547 1159h-101v-86h273q-61 86 -172 86zM547 539q117 0 174 90h-275v-90h101zM778 888q0 3 -2 13h-330v-100h330q2 10 2 13v74zM555 305h-100v-305h-285v625h-98v176h98v100h-98v176h98v316h385q190 0 308 -84t167 -232h133v-176h-102q2 -10 2 -13v-40q0 -37 -2 -47h102
v-176h-135q-49 -150 -167 -235t-306 -85z" />
    <glyph glyph-name="uni20B2" unicode="&#x20b2;" 
d="M375 696q0 -184 38.5 -302t116.5 -161v918q-155 -91 -155 -455zM760 748h344v-658q-74 -47 -182.5 -80t-223.5 -39v-192h-168v201q-216 35 -335 227.5t-119 475.5t116 478.5t338 247.5v168h168v-154q166 -6 261.5 -44t125.5 -56l-75 -221q-142 74 -312 78v-967
q99 12 142 37v272l-80 23v203z" />
    <glyph glyph-name="uni20B4" unicode="&#x20b4;" 
d="M188 1323q196 100 426 100q78 0 165 -30.5t174 -111.5t87 -261q0 -27 -4 -47h74v-201h-217q-25 -20 -55.5 -45t-59.5 -43l-90 -59h422v-201h-676q-4 -20 -4 -39q0 -176 203 -176q122 0 226 48t132 69l82 -224q-74 -47 -259.5 -109t-420.5 18t-235 368v17q0 18 2 28h-72
v201h213q29 23 56.5 46t50.5 40l86 61h-406v201h676q4 10 4 13v36q0 74 -47 118t-148 44q-45 0 -133.5 -23.5t-169.5 -64.5z" />
    <glyph glyph-name="uni20B5" unicode="&#x20b5;" 
d="M373 695q0 -169 57 -287.5t168 -165.5v909q-111 -47 -168 -167t-57 -289zM778 -221h-180v203q-255 46 -388.5 233.5t-133.5 479t135 482t387 234.5v166h180v-154q189 -9 359 -90l-76 -225q-143 64 -283 72v-967q140 8 283 72l76 -226q-170 -81 -359 -90v-190z" />
    <glyph glyph-name="uni2113" unicode="&#x2113;" horiz-adv-x="788" 
d="M487 1272q-63 0 -63 -113v-342q63 68 97 163.5t34 169.5q0 122 -68 122zM244 231v220q-31 -31 -68 -58.5t-51 -38.5l-84 152q63 45 126.5 103.5t76.5 72.5v440q0 255 103.5 298.5t162.5 43.5q109 0 169 -70.5t60 -203.5q0 -310 -315 -608v-301q0 -87 35 -102t55 -15
q73 0 154 61l59 -172q-100 -84 -227 -84q-256 0 -256 262z" />
    <glyph glyph-name="uni2116" unicode="&#x2116;" horiz-adv-x="2265" 
d="M1061 432v961h285v-1393h-302l-591 961h-7v-961h-284v1393h301l592 -961h6zM1546 401v179h580v-179h-580zM2183 1028q-1 -68 -23 -128q-45 -120 -174 -175q-65 -27 -148 -27q-158 0 -254 96t-94 234q1 139 95 235q94 95 253 95t252 -93t93 -237zM1696 1027q0 -93 42 -126
t100 -33t99 33t41 126t-41 127t-99 34t-100 -34t-42 -127z" />
    <glyph glyph-name="uni2117" unicode="&#x2117;" horiz-adv-x="1642" 
d="M760 702h102q55 0 78 29t23 85t-22.5 84t-78.5 28h-102v-226zM573 313v766h312q210 0 241 -104.5t31 -190t-65 -159.5t-207 -74h-125v-238h-187zM240 696q0 -125 46 -232.5t127 -186t189.5 -123.5t233.5 -45t228 45t179 123.5t118 186t42 232.5t-44 232.5t-122 186.5
t-184.5 124t-231.5 45t-231.5 -45t-184 -124t-121.5 -186.5t-44 -232.5zM94 696.5q0 153.5 55.5 286.5t153.5 231.5t231.5 153.5t287 55t286.5 -55t231.5 -153.5t153.5 -231.5t55 -286.5t-55 -287t-153.5 -231.5t-231.5 -153.5t-286.5 -55.5t-287 55.5t-231.5 153.5
t-153.5 231.5t-55.5 287z" />
    <glyph glyph-name="trademark" unicode="&#x2122;" horiz-adv-x="1511" 
d="M1368 1434v-574h-166v352h-2l-92 -235h-135l-94 235h-2v-352h-162v574h180l143 -293h2l150 293h178zM612 1434v-131h-168v-443h-163v443h-170v131h501z" />
    <glyph glyph-name="Omega" unicode="&#x2126;" horiz-adv-x="1585" 
d="M113 238h290q-193 109 -237.5 275.5t-44.5 278.5t40 226.5t172 259.5t459 145q326 0 499 -188.5t173 -448.5q0 -197 -81 -339t-203 -209h290v-238h-589v209q140 91 212 215t72 324q0 296 -135 364t-238 68q-191 0 -282.5 -122.5t-91.5 -309.5q0 -290 110.5 -394
t173.5 -145v-209h-589v238z" />
    <glyph glyph-name="estimated" unicode="&#x212e;" horiz-adv-x="1343" 
d="M682 1135q-207 0 -334 -129v-330h678v330q-137 129 -344 129zM702 -31q-272 0 -435 180t-163 446q0 267 162.5 442t418.5 175t418.5 -165.5t170.5 -432.5l-14 -20h-912v-412q133 -127 338 -127q277 0 420 217l76 -55q-96 -133 -214 -190.5t-266 -57.5z" />
    <glyph glyph-name="onethird" unicode="&#x2153;" horiz-adv-x="1583" 
d="M188 0v20l934 1373h213v-21l-934 -1372h-213zM1311 223q0 35 -26 46t-85 12h-143v157h141q94 0 92 68q0 69 -102 69t-184 -34l-54 149q123 47 254 47t207 -53q76 -52 76 -140t-37 -124t-78 -41v-2q135 -41 135 -180q0 -96 -74 -155q-75 -58 -234 -58t-267 55l49 154
q90 -44 210 -45t120 75zM61 1102v172l267 119h143v-721h-188v520h-4l-199 -90h-19z" />
    <glyph glyph-name="twothirds" unicode="&#x2154;" horiz-adv-x="1687" 
d="M295 0v20l934 1373h213v-21l-934 -1372h-213zM1417 223q0 35 -25 46q-26 11 -85 12h-144v157h142q92 0 92 68t-102 69q-102 0 -185 -34l-53 149q123 47 253 47q132 0 208 -53q76 -52 76 -140t-38 -124q-37 -36 -77 -41v-2q135 -41 135 -180q0 -97 -75 -155t-234 -58
t-267 55l49 154q90 -44 210 -45t120 75zM440 1142q0 104 -94 102q-47 0 -83 -26t-70 -61l-109 123q111 125 276 125q122 0 200 -62t79 -178q0 -76 -40 -130t-99 -99l-140 -109v-4h289v-155h-563v143l301 240q53 43 53 91z" />
    <glyph glyph-name="oneeighth" unicode="&#x215b;" horiz-adv-x="1583" 
d="M61 1102v172l267 119h143v-721h-188v520h-4l-199 -90h-19zM188 0v20l934 1373h213v-21l-934 -1372h-213zM1212 449q47 0 70 20t23 52q0 31 -23 53t-70 22t-67 -22t-21 -52q0 -73 88 -73zM942 549q0 78 74 133t195 55q122 0 197 -55t75 -133q0 -127 -111 -170v-2
q62 -17 102 -61t39 -117q0 -98 -82 -157q-83 -58 -219 -58t-219 58q-82 58 -82 144t42 130q42 42 102 61v2q-113 42 -113 170zM1212 137q63 0 87 25q24 26 24 60t-24 58t-87 23q-114 0 -112 -82q0 -35 24 -59t88 -25z" />
    <glyph glyph-name="threeeighths" unicode="&#x215c;" horiz-adv-x="1665" 
d="M272 0v20l934 1373h213v-21l-934 -1372h-213zM1296 449q47 0 70 20t23 52q0 31 -23 53t-70 22t-67 -22t-21 -52q0 -73 88 -73zM1026 549q0 78 74 133t195 55q122 0 197 -55t75 -133q0 -127 -111 -170v-2q62 -17 102 -61t39 -117q0 -99 -83 -157t-219 -58t-218 58t-82 144
t42 130q42 42 102 61v2q-113 42 -113 170zM1296 137q63 0 87 25q24 26 24 60t-24 58t-87 23q-114 0 -112 -82q0 -35 24 -59t88 -25zM329 813q119 0 117 76q0 35 -25 46q-26 11 -85 11h-143v158h141q92 0 92 68t-103 69q-103 0 -184 -35l-53 150q123 47 254 47t207 -53
q76 -52 76 -140t-37 -124t-78 -42v-2q135 -41 135 -180q0 -96 -75 -154t-234 -58t-266 55l49 153q93 -45 212 -45z" />
    <glyph glyph-name="fiveeighths" unicode="&#x215d;" horiz-adv-x="1630" 
d="M238 0v20l933 1373h213v-21l-933 -1372h-213zM1174 522q0 -73 90 -73t90 73q0 30 -23 52t-69 22t-68 -22q-20 -22 -20 -52zM1104 379q-113 42 -113 170q0 78 74 133t196 55q123 0 197 -55t74 -133q0 -127 -111 -170v-2q142 -43 142 -191q0 -86 -83 -144t-219 -58t-219 58
q-82 58 -81 157q-1 75 41 117t102 61v2zM1262 137q63 0 87 25t23 59q0 84 -113 83t-110 -83q0 -35 25 -59t88 -25zM598 1393v-158h-276l-9 -92h33q123 0 201 -53q78 -52 78 -176t-83 -192t-232 -67q-149 0 -247 35l43 166q87 -37 202 -37q116 0 116 86q0 80 -119 78
q-65 0 -162 -10l-24 26l37 394h442z" />
    <glyph glyph-name="seveneighths" unicode="&#x215e;" horiz-adv-x="1544" 
d="M152 0v20l933 1373h213v-21l-933 -1372h-213zM1087 522q1 -73 91 -73t90 73q0 30 -23 52t-69 22t-68 -22q-20 -22 -21 -52zM1018 379q-113 42 -113 170q0 78 74 133t196 55q123 0 197 -55t74 -133q0 -127 -111 -170v-2q142 -43 142 -191q0 -86 -83 -144t-219 -58t-219 58
q-82 58 -82 144t42 130q42 42 102 61v2zM1176 137q63 0 87 25t23 59q0 84 -113 83t-110 -83q0 -84 113 -84zM430 1235h-352v158h557v-146l-305 -575h-201v10l301 551v2z" />
    <glyph glyph-name="arrowleft" unicode="&#x2190;" horiz-adv-x="1826" 
d="M1827 815v-242h-1292l507 -475l-182 -182l-778 778l778 779l182 -183l-507 -475h1292z" />
    <glyph glyph-name="arrowup" unicode="&#x2191;" horiz-adv-x="1826" 
d="M1073 -180h-244l2 1292l-475 -510l-182 182l778 779l779 -779l-183 -182l-475 510v-1292z" />
    <glyph glyph-name="arrowright" unicode="&#x2192;" horiz-adv-x="1826" 
d="M82 573v242h1292l-508 475l183 183l778 -779l-778 -778l-183 182l508 475h-1292z" />
    <glyph glyph-name="arrowdown" unicode="&#x2193;" horiz-adv-x="1826" 
d="M831 1563h244l-2 -1293l475 510l183 -182l-779 -778l-778 778l182 182l475 -510v1293z" />
    <glyph glyph-name="uni2196" unicode="&#x2196;" horiz-adv-x="1818" 
d="M1427 1356v-258l-694 22l914 -911l-174 -174l-914 915l25 -696h-258v1102h1101z" />
    <glyph glyph-name="uni2197" unicode="&#x2197;" horiz-adv-x="1818" 
d="M1647 254h-258l22 694l-911 -913l-174 174l915 913l-696 -22v256h1102v-1102z" />
    <glyph glyph-name="uni2198" unicode="&#x2198;" horiz-adv-x="1818" 
d="M545 37v258l694 -23l-913 912l174 174l913 -916l-24 697h258v-1102h-1102z" />
    <glyph glyph-name="uni2199" unicode="&#x2199;" horiz-adv-x="1818" 
d="M326 1139h258l-23 -695l912 914l174 -174l-916 -914l696 25v-258h-1101v1102z" />
    <glyph glyph-name="partialdiff" unicode="&#x2202;" horiz-adv-x="1236" 
d="M578 743q-100 0 -158 -75.5t-58 -194.5q0 -176 86.5 -219t142.5 -43q114 0 183.5 107t77.5 280q-117 145 -274 145zM984.5 165q-154.5 -196 -421.5 -196q-229 0 -363 144.5t-134 372.5q0 227 127.5 363t315.5 136t258.5 -64.5t90.5 -86.5l4 4q-27 168 -163.5 259
t-374.5 95l36 242q380 0 579.5 -205t199.5 -536q0 -332 -154.5 -528z" />
    <glyph glyph-name="Delta" unicode="&#x2206;" horiz-adv-x="1449" 
d="M721 1102l-297 -864h604l-301 864h-6zM1399 0h-1348v10l508 1383h332l508 -1383v-10z" />
    <glyph glyph-name="product" unicode="&#x220f;" horiz-adv-x="1462" 
d="M1024 1196h-586v-1602h-284v1840h1155v-1840h-285v1602z" />
    <glyph glyph-name="summation" unicode="&#x2211;" horiz-adv-x="1245" 
d="M98 1434h1043v-238h-723l518 -659l-553 -705h788v-238h-1105v211l561 723l-529 693v213z" />
    <glyph glyph-name="minus" unicode="&#x2212;" 
d="M1126 662v-211h-1044v211h1044z" />
    <glyph glyph-name="uni2215" unicode="&#x2215;" horiz-adv-x="1146" 
d="M0 0v20l934 1373h213v-21l-934 -1372h-213z" />
    <glyph glyph-name="uni2219" unicode="&#x2219;" horiz-adv-x="569" 
d="M111 596q0 78 47 127t127 49t127 -49t47 -127t-47 -127t-127 -49t-127 49t-47 127z" />
    <glyph glyph-name="radical" unicode="&#x221a;" horiz-adv-x="1310" 
d="M16 455h260l248 -574h4l533 1512h254l-641 -1799h-287l-371 840v21z" />
    <glyph glyph-name="infinity" unicode="&#x221e;" horiz-adv-x="1521" 
d="M432 432q47 0 87 28.5t97 94.5q-59 66 -97 93.5t-86 27.5t-78.5 -36t-30.5 -87t30.5 -86t77.5 -35zM1089 432q47 0 78 36t31 85t-30 86t-78 37t-86.5 -27.5t-98.5 -95.5q61 -66 99 -93.5t85 -27.5zM933.5 269.5q-74.5 38.5 -169.5 142.5q-95 -99 -209 -158.5t-249 -4.5
t-170.5 144.5t-35.5 197.5t91 197t231 89q88 0 164.5 -39.5t175.5 -143.5q106 110 177 146.5t150 36.5q149 0 240.5 -88t91.5 -233q0 -144 -90.5 -234.5t-206.5 -90.5t-190.5 38.5z" />
    <glyph glyph-name="integral" unicode="&#x222b;" horiz-adv-x="1064" 
d="M161 -209q60 0 87.5 21.5t40.5 89.5l211 1196q31 172 125 248.5t225 76.5t207 -14l-31 -227q-62 14 -124 14t-89 -21.5t-39 -89.5l-211 -1196q-31 -172 -125 -248.5t-226 -76.5t-204 14l31 227q62 -14 122 -14z" />
    <glyph glyph-name="approxequal" unicode="&#x2248;" 
d="M348 487q97 0 219.5 -38.5t187.5 -56t119 -17.5t84.5 10t63.5 39l98 -129q-94 -131 -264 -131q-82 0 -210 39t-195.5 56t-143.5 17t-127 -51l-98 129q92 133 266 133zM348 948q93 0 217.5 -39t189.5 -56t119 -17t84.5 10t63.5 39l98 -129q-94 -131 -264 -131
q-86 0 -212 38.5t-193.5 56t-143.5 17.5t-127 -51l-98 129q92 133 266 133z" />
    <glyph glyph-name="notequal" unicode="&#x2260;" 
d="M260 0v20l84 199h-223v211h311l107 252h-418v211h508l90 215h225v-21l-82 -194h221v-211h-311l-106 -252h417v-211h-505l-93 -219h-225z" />
    <glyph glyph-name="lessequal" unicode="&#x2264;" 
d="M1114 211v-211h-1044v211h1044zM1114 1280v-223l-778 -275v-6l778 -274v-223h-20l-1024 399v203l1024 399h20z" />
    <glyph glyph-name="greaterequal" unicode="&#x2265;" 
d="M1137 211v-211h-1045v211h1045zM92 279v223l778 274v6l-778 275v223h21l1024 -399v-203l-1024 -399h-21z" />
    <glyph glyph-name="lozenge" unicode="&#x25ca;" horiz-adv-x="1189" 
d="M862 696l-272 437l-262 -453l274 -422zM53 670l434 723h207l443 -682l-432 -711h-211z" />
    <glyph glyph-name="circle" unicode="&#x25cb;" horiz-adv-x="1638" 
d="M416 294.5q160 -163.5 403 -163.5t402 164.5t159 400.5q0 237 -159 401.5t-402 164.5t-403 -164t-160 -402t160 -401.5zM123 696.5q0 147.5 53 275.5t146.5 221t221.5 146.5t275.5 53.5t275.5 -53.5t221 -146.5t146.5 -221t53.5 -275.5t-53.5 -275.5t-146.5 -221.5
t-221 -146.5t-275.5 -53t-275.5 53t-221.5 146.5t-146.5 221.5t-53 275.5z" />
    <glyph glyph-name="H18533" unicode="&#x25cf;" horiz-adv-x="1638" 
d="M123 698.5q0 147.5 53 274.5t146.5 220t220.5 146.5t274.5 53.5t275.5 -53.5t222 -146.5t147.5 -220t53.5 -274.5t-53.5 -275.5t-147.5 -222.5t-222 -147.5t-275.5 -53t-274.5 53t-220.5 147.5t-146.5 222.5t-53 275.5z" />
    <glyph glyph-name="uni25DC" unicode="&#x25dc;" horiz-adv-x="696" 
d="M696 1262q-243 0 -403 -164t-160 -402h-133q0 147 53 275.5t146.5 221.5t221.5 146.5t275 53.5v-131z" />
    <glyph glyph-name="uni25DD" unicode="&#x25dd;" horiz-adv-x="696" 
d="M0 1393q147 0 275 -53.5t221.5 -146.5t146.5 -221t53 -276h-135q0 237 -159 401.5t-402 164.5v131z" />
    <glyph glyph-name="uni25DE" unicode="&#x25de;" horiz-adv-x="696" 
d="M0 131q243 0 402 164.5t159 400.5h135q0 -147 -53 -275t-146.5 -221.5t-221.5 -146.5t-275 -53v131z" />
    <glyph glyph-name="uni25DF" unicode="&#x25df;" horiz-adv-x="696" 
d="M696 0q-147 0 -275 53t-221.5 146.5t-146.5 221.5t-53 275h133q0 -237 160 -401t403 -164v-131z" />
    <glyph glyph-name="uniEA01" unicode="&#xea01;" horiz-adv-x="2048" 
d="M1206 610h-360v-385h-238v961h238v-385h360v385h236v-961h-236v385zM1755 -47v1464h-1464v-1464h1464zM141 1567h1764v-1764h-1764v1764z" />
    <glyph glyph-name="uniEA02" unicode="&#xea02;" horiz-adv-x="2048" 
d="M1082 203q-128 0 -218 35.5t-151.5 102.5t-93 159t-31.5 262.5t127 307t356 136.5q149 0 283 -61l-62 -189q-66 31 -112.5 42.5t-108.5 11.5q-98 0 -165.5 -76t-67.5 -226t64 -228.5t169 -78.5t221 52l62 -189q-144 -61 -272 -61zM1755 -47v1464h-1464v-1464h1464z
M141 1567h1764v-1764h-1764v1764z" />
    <glyph glyph-name="uniEA03" unicode="&#xea03;" horiz-adv-x="2048" 
d="M1028 1014q-63 0 -91 -25.5t-28 -60.5t17.5 -54.5t70.5 -35.5l107 -33q139 -43 207.5 -106.5t68.5 -176.5q0 -147 -104.5 -233t-279.5 -86q-174 0 -341 86l60 188q87 -49 170.5 -64.5t120.5 -15.5q131 0 131 97q0 35 -25 54t-100 44l-111 35q-135 45 -185 116.5
t-50 161.5q0 141 98 221t264 80t305 -61l-61 -189q-118 58 -244 58zM1755 -47v1464h-1464v-1464h1464zM141 1567h1764v-1764h-1764v1764z" />
    <glyph glyph-name="uniEA04" unicode="&#xea04;" horiz-adv-x="2048" 
d="M1206 225h236v961h-236v-385h-360v385h-238v-961h238v385h360v-385zM141 1567h1764v-1764h-1764v1764z" />
    <glyph glyph-name="uniEA05" unicode="&#xea05;" horiz-adv-x="2048" 
d="M1087 1206q-133 0 -223 -36.5t-151.5 -102.5t-93 -158t-31.5 -262t125.5 -307t357.5 -137q135 0 283 61l-62 189q-118 -52 -221 -52q-162 0 -197.5 114t-35.5 190q0 154 67.5 229.5t170.5 75.5t216 -54l62 189q-134 61 -267 61zM141 1567h1764v-1764h-1764v1764z" />
    <glyph glyph-name="uniEA06" unicode="&#xea06;" horiz-adv-x="2048" 
d="M1380 522q0 113 -68.5 176.5t-207.5 106.5l-107 33q-53 16 -70.5 35.5t-17.5 54.5t28 60.5t91 25.5q124 0 244 -58l61 189q-138 61 -305 61q-166 0 -264 -79.5t-98 -221.5q0 -90 50 -161.5t185 -116.5l111 -35q76 -25 100.5 -44.5t24.5 -53.5q0 -96 -131 -97
q-103 0 -185 33t-106 47l-60 -188q164 -86 340 -86t280.5 86t104.5 233zM141 1567h1764v-1764h-1764v1764z" />
    <glyph glyph-name="uniF6C3" unicode="&#xf6c3;" 
d="M768 -106v-21l-121 -319h-207v20l52 320h276z" />
    <glyph glyph-name="uniF6E1" unicode="&#xf6e1;" horiz-adv-x="391" 
d="M330 6v-16l-137 -441h-170v17l79 440h228z" />
    <glyph glyph-name="uniF6E2" unicode="&#xf6e2;" horiz-adv-x="393" 
d="M330 1165v-16l-137 -440h-170v16l79 440h228z" />
    <glyph glyph-name="uniF6E5" unicode="&#xf6e5;" horiz-adv-x="546" 
d="M78 45v158h391v-158h-391z" />
    <glyph glyph-name="uniF6E6" unicode="&#xf6e6;" horiz-adv-x="546" 
d="M78 1206v158h391v-158h-391z" />
    <glyph glyph-name="uniF6E7" unicode="&#xf6e7;" horiz-adv-x="385" 
d="M57 -124q0 60 37 99q36 39 98 39t99 -39t37 -99t-37 -98t-98 -38t-99 38q-37 38 -37 98z" />
    <glyph glyph-name="uniF6E8" unicode="&#xf6e8;" horiz-adv-x="389" 
d="M59 1037q0 59 37 99q36 40 98 40t99 -39t37 -99t-37 -99q-37 -38 -98 -38t-99 38q-37 38 -37 98z" />
    <glyph glyph-name="uniF8FF" unicode="&#xf8ff;" horiz-adv-x="1144" 
d="M877 119v1155h-609v-1155h609zM150 1393h845v-1393h-845v1393z" />
    <glyph glyph-name="uniFB01" unicode="&#xfb01;" horiz-adv-x="1316" 
d="M891 1290.5q0 65.5 44 108.5t117 43t116.5 -43t43.5 -108.5t-44 -108.5t-116 -43t-116.5 43t-44.5 108.5zM597 1217q-58 0 -81.5 -21.5t-23.5 -89.5v-119h696v-987h-277v776h-419v-776h-277v776h-174v150l174 61v131q0 170 92 248t244 78q99 0 176 -14v-228
q-72 15 -130 15z" />
    <glyph glyph-name="uniFB02" unicode="&#xfb02;" horiz-adv-x="1376" 
d="M492 987h245v-211h-245v-776h-277v776h-174v150l174 61v131q0 170 92 248t244 78q99 0 176 -14v-228q-59 12 -123 14q-65 1 -89 -21t-23 -89v-119zM1161 -18q-141 0 -197 70t-57 218v1164h277v-1213q0 -23 5 -30t28 -7h108v-188q-77 -14 -164 -14z" />
    <glyph glyph-name="zero.pnum" horiz-adv-x="1327" 
d="M666 1423q557 0 557 -627.5t-204 -727t-353 -99.5q-562 0 -562 727t562 727zM401 633q0 -178 60.5 -299t204.5 -121q209 0 234.5 184.5t25.5 364t-59.5 299t-200.5 119.5q-210 0 -237.5 -184.5t-27.5 -362.5z" />
    <glyph glyph-name="one.pnum" horiz-adv-x="833" 
d="M57 1006v243l402 144h213v-1393h-285v1110h-4l-301 -104h-25z" />
    <glyph glyph-name="two.pnum" horiz-adv-x="1165" 
d="M477 238h586v-238h-973v205l520 506q142 133 142 270q0 82 -59.5 140.5t-155.5 58.5t-167 -43t-134 -103l-150 185q121 129 247.5 166.5t222.5 37.5q211 0 352 -118t141 -324q0 -122 -62 -220t-160 -196l-350 -323v-4z" />
    <glyph glyph-name="three.pnum" horiz-adv-x="1173" 
d="M518 213q112 0 185 47.5t73 140.5t-59 138t-199 45h-237v237h237q121 0 171 51.5t50 131t-53 128t-196 48.5t-308 -70l-82 221q198 92 437 92t369 -104.5t130 -281.5t-86 -237.5t-123 -72.5v-4q104 -37 175 -124t71 -224q0 -187 -143.5 -296.5t-406.5 -109.5t-455 105
l75 225q164 -86 375 -86z" />
    <glyph glyph-name="four.pnum" horiz-adv-x="1284" 
d="M1030 940v-408h184v-237h-184v-295h-285v295h-690v205l434 893h293l-405 -856v-5h368v408h285z" />
    <glyph glyph-name="five.pnum" horiz-adv-x="1146" 
d="M458 213q302 0 302 218q0 101 -65.5 154.5t-221.5 53.5q-85 0 -280 -12l-35 35l78 731h765v-238h-524l-28 -276q31 4 117 4t181 -23.5t202.5 -108t107.5 -309.5q0 -226 -155 -349.5t-427 -123.5q-196 0 -416 76l66 240q169 -72 333 -72z" />
    <glyph glyph-name="six.pnum" horiz-adv-x="1210" 
d="M850 452.5q0 116.5 -63.5 172t-173.5 55.5t-174 -55.5t-64 -172t64.5 -178t174.5 -61.5t173 61.5t63 178zM712 924q188 0 311.5 -133t123.5 -339q0 -205 -141 -344t-394 -139t-393.5 137.5t-140.5 331.5t98 353l385 602h316v-21l-322 -471l2 -4q62 27 155 27z" />
    <glyph glyph-name="seven.pnum" horiz-adv-x="1069" 
d="M713 1155h-654v238h963v-205l-533 -1188h-299v20l523 1131v4z" />
    <glyph glyph-name="eight.pnum" horiz-adv-x="1261" 
d="M451 1010q0 -170 180 -170t180 170t-180 170t-180 -170zM154 1034q0 177 118 283t359 106q354 0 448 -233q29 -72 29 -176t-54 -176q-54 -70 -126 -103v-4q106 -41 171 -131t65 -202q-1 -308 -301 -399q-99 -30 -232 -30t-233 30q-300 91 -300 378q0 133 65 223t171 131
v4q-180 78 -180 299zM631 213q125 0 180 54q55 55 55 141t-55 140t-182 54t-180 -54t-53 -140t54 -140q56 -54 181 -55z" />
    <glyph glyph-name="nine.pnum" horiz-adv-x="1210" 
d="M360 940q0 -117 63.5 -172t173.5 -55t174.5 55t64.5 172t-64.5 178.5t-174.5 61.5t-173.5 -61.5t-63.5 -178.5zM498 469q-187 0 -311 133t-124 338t140.5 344t394.5 139t394.5 -139t140.5 -330t-99 -352l-385 -602h-315v20l321 472l-2 4q-63 -27 -155 -27z" />
    <glyph glyph-name="a.salt" horiz-adv-x="1075" 
d="M709 88q-149 -119 -329 -119q-64 0 -127 23.5t-125 86.5t-62 214q0 152 114.5 231.5t327.5 79.5h172v37q0 133 -77 141.5t-99 8.5q-163 0 -320 -72l-65 211q196 88 404 88t320.5 -108.5t112.5 -299.5v-610h-204l-39 88h-4zM344 303q0 -117 119 -117t217 68v172h-141
q-195 0 -195 -123z" />
    <glyph glyph-name="agrave.aalt" horiz-adv-x="1075" 
d="M508 604h172v37q0 98 -65 129q-35 18 -111 21q-163 0 -320 -72l-65 211q196 88 404 88t321 -109t112 -299v-610h-204l-39 88h-4q-144 -115 -306 -117t-251 85q-88 87 -86 225q0 323 442 323zM344 303q0 -117 119 -117t217 68v172h-141q-195 0 -195 -123zM231 1460h291
l162 -278v-21h-242l-211 281v18z" />
    <glyph glyph-name="aacute.aalt" horiz-adv-x="1075" 
d="M508 604h172v37q0 98 -65 129q-35 18 -111 21q-163 0 -320 -72l-65 211q196 88 404 88t321 -109t112 -299v-610h-204l-39 88h-4q-144 -115 -306 -117t-251 85q-88 87 -86 225q0 323 442 323zM344 303q0 -117 119 -117t217 68v172h-141q-195 0 -195 -123zM406 1161v21
l161 278h291v-18l-211 -281h-241z" />
    <glyph glyph-name="acircumflex.aalt" horiz-adv-x="1075" 
d="M508 604h172v37q0 98 -65 129q-35 18 -111 21q-163 0 -320 -72l-65 211q196 88 404 88t321 -109t112 -299v-610h-204l-39 88h-4q-144 -115 -306 -117t-251 85q-88 87 -86 225q0 323 442 323zM344 303q0 -117 119 -117t217 68v172h-141q-195 0 -195 -123zM889 1161h-230
l-108 142l-107 -142h-229v21l186 278h301l187 -278v-21z" />
    <glyph glyph-name="atilde.aalt" horiz-adv-x="1075" 
d="M508 604h172v37q0 98 -65 129q-35 18 -111 21q-163 0 -320 -72l-65 211q196 88 404 88t321 -109t112 -299v-610h-204l-39 88h-4q-144 -115 -306 -117t-251 85q-88 87 -86 225q0 323 442 323zM344 303q0 -117 119 -117t217 68v172h-141q-195 0 -195 -123zM389 1253
q-80 0 -137 -71l-55 143q33 57 91 96t129 39t158 -46q35 -18 69 -32t75 -14q83 0 137 70l55 -140q-35 -66 -95 -102t-112 -35q-71 0 -172 46q-100 46 -143 46z" />
    <glyph glyph-name="adieresis.aalt" horiz-adv-x="1075" 
d="M508 604h172v37q0 98 -65 129q-35 18 -111 21q-163 0 -320 -72l-65 211q196 88 404 88t321 -109t112 -299v-610h-204l-39 88h-4q-144 -115 -306 -117t-251 85q-88 87 -86 225q0 323 442 323zM344 303q0 -117 119 -117t217 68v172h-141q-195 0 -195 -123zM618 1311
q0 67 44 109t118 42q72 0 116 -43t44 -109t-44 -108q-44 -43 -117 -43t-117 43t-44 109zM168 1311q0 67 44 109t117 42t117 -43t43 -109q0 -66 -44 -108q-45 -43 -117 -43t-116 43t-44 109z" />
    <glyph glyph-name="aring.aalt" horiz-adv-x="1075" 
d="M508 604h172v37q0 98 -65 129q-35 18 -111 21q-163 0 -320 -72l-65 211q196 88 404 88t321 -109t112 -299v-610h-204l-39 88h-4q-144 -115 -306 -117t-251 85q-88 87 -86 225q0 323 442 323zM344 303q0 -117 119 -117t217 68v172h-141q-195 0 -195 -123zM303 1316
q0 108 70 168q71 62 181 62t178 -61t69 -169q0 -108 -69 -169q-70 -61 -180 -61t-180 60q-70 62 -69 170zM467 1317q0 -80 85 -80t85 80q0 37 -23 59q-24 22 -62 21q-38 1 -62 -21t-23 -59z" />
    <glyph glyph-name="amacron.aalt" horiz-adv-x="1075" 
d="M508 604h172v37q0 98 -65 129q-35 18 -111 21q-163 0 -320 -72l-65 211q196 88 404 88t321 -109t112 -299v-610h-204l-39 88h-4q-144 -115 -306 -117t-251 85q-88 87 -86 225q0 323 442 323zM344 303q0 -117 119 -117t217 68v172h-141q-195 0 -195 -123zM256 1186v211
h594v-211h-594z" />
    <glyph glyph-name="abreve.aalt" horiz-adv-x="1075" 
d="M508 604h172v37q0 98 -65 129q-35 18 -111 21q-163 0 -320 -72l-65 211q196 88 404 88t321 -109t112 -299v-610h-204l-39 88h-4q-144 -115 -306 -117t-251 85q-88 87 -86 225q0 323 442 323zM344 303q0 -117 119 -117t217 68v172h-141q-195 0 -195 -123zM555 1380
q177 0 268 70l86 -131q-107 -158 -356 -158t-356 158l86 131q95 -70 272 -70z" />
    <glyph glyph-name="aogonek.aalt" horiz-adv-x="1075" 
d="M344 303q0 -117 119 -117t217 68v172h-141q-195 0 -195 -123zM709 88q-149 -119 -329 -119q-64 0 -127 23.5t-125 86.5t-62 214q0 152 114.5 231.5t327.5 79.5h172v37q0 133 -77 141.5t-99 8.5q-163 0 -320 -72l-65 211q196 88 404 88t320.5 -108.5t112.5 -299.5v-610
q-66 -25 -106.5 -78t-40.5 -99t21.5 -63.5t73.5 -17.5t97 37l23 -164q-84 -51 -195 -51q-104 0 -168.5 58t-64.5 153q0 137 152 233l-35 80h-4z" />
    <glyph glyph-name="aringacute.aalt" horiz-adv-x="1075" 
d="M453 1577v16l114 209h297v-14l-162 -211h-249zM709 88q-149 -119 -329 -119q-64 0 -127 23.5t-125 86.5t-62 214q0 152 114.5 231.5t327.5 79.5h172v37q0 133 -77 141.5t-99 8.5q-163 0 -320 -72l-65 211q196 88 404 88t320.5 -108.5t112.5 -299.5v-610h-204l-39 88h-4z
M344 303q0 -117 119 -117t217 68v172h-141q-195 0 -195 -123zM317 1296q0 108 70 165t180.5 57t179 -56.5t68.5 -164.5t-68.5 -164t-179 -56t-180.5 55.5t-70 163.5zM566 1368q-85 0 -85 -70t85 -70t85 70t-85 70z" />
    <glyph glyph-name="uni0444.aalt" horiz-adv-x="1474" 
d="M874 180q240 42 240 312.5t-240 312.5v-625zM598 178v629q-238 -36 -238 -314.5t238 -314.5zM205.5 839.5q127.5 137.5 392.5 166.5v428h276v-433q403 -45 463 -229t60 -279q0 -205 -124.5 -341t-398.5 -166v-392h-276v388q-268 27 -394 165t-126 347q0 208 127.5 345.5z
" />
    <glyph glyph-name="Euro.aalt" horiz-adv-x="1257" 
d="M811 213q149 0 297 72l76 -226q-180 -90 -373 -90q-240 0 -387.5 120t-202.5 329h-137v207h102q-2 18 -2 23v52q0 48 2 68h-102v207h137q55 209 202.5 328.5t387.5 119.5q193 0 373 -90l-76 -225q-148 72 -271 72q-237 0 -323 -205h387v-207h-432q-2 -20 -2 -24v-53
q0 -48 2 -66h432v-207h-385q92 -205 295 -205z" />
    <glyph glyph-name="uni20A8.aalt" 
d="M1071 1036v-207h-153q-37 -215 -172.5 -268t-223.5 -61l486 -467v-33h-328l-533 535v176h230q214 0 248 118h-478l-2 207h480q-32 119 -248 119h-230l-2 238h926v-207h-289v-4q93 -58 125 -146h164z" />
    <glyph glyph-name="registered.aalt" horiz-adv-x="1642" 
d="M940 866.5q0 61.5 -96 61.5h-156v-174h156q53 0 74.5 25.5t21.5 87zM1135 842q0 -183 -168 -228l209 -282v-19h-205l-199 289h-84v-289h-186v766h350q150 0 216.5 -63.5t66.5 -173.5zM240 696q0 -125 46 -232.5t127 -186t189.5 -123.5t233.5 -45t228 45t179 123.5
t118 186t42 232.5t-44 232.5t-122 186.5t-184.5 124t-231.5 45t-231.5 -45t-184 -124t-121.5 -186.5t-44 -232.5zM94 696.5q0 153.5 55.5 286.5t153.5 231.5t231.5 153.5t287 55t286.5 -55t231.5 -153.5t153.5 -231.5t55 -286.5t-55 -287t-153.5 -231.5t-231.5 -153.5
t-286.5 -55.5t-287 55.5t-231.5 153.5t-153.5 231.5t-55.5 287z" />
    <glyph glyph-name="guillemotleft.aalt" horiz-adv-x="1157" 
d="M92 711l330 448l170 -100l-219 -363l221 -360l-172 -98l-330 448v25zM545 711l329 448l170 -100l-219 -363l222 -360l-173 -98l-329 448v25z" />
    <glyph glyph-name="bracketleft.aalt" horiz-adv-x="698" 
d="M629 1618v-150l-240 -47v-1446l240 -47v-149h-475v1839h475z" />
    <glyph glyph-name="guilsinglright.aalt" horiz-adv-x="702" 
d="M610 686l-329 -448l-170 100l219 362l-221 361l172 98l329 -448v-25z" />
    <glyph glyph-name="bar.aalt" horiz-adv-x="489" 
d="M336 -221h-182v1839h182v-1839z" />
    <glyph glyph-name="periodcentered.aalt" horiz-adv-x="585" 
d="M119 696q0 78 47 127t127 49t127 -49t47 -127t-47 -127t-127 -49t-127 49t-47 127z" />
    <glyph glyph-name="bullet.aalt" horiz-adv-x="761" 
d="M152 696q0 102 62 168t168 66t170 -66q62 -66 62 -168t-62 -168t-168 -66t-170 66q-62 66 -62 168z" />
    <glyph glyph-name="emdash.aalt" horiz-adv-x="1900" 
d="M135 596v211h1630v-211h-1630z" />
    <glyph glyph-name="bracketright.aalt" horiz-adv-x="698" 
d="M545 1618v-1839h-475v149l239 47v1446l-239 47v150h475z" />
    <glyph glyph-name="endash.aalt" horiz-adv-x="1212" 
d="M135 596v211h942v-211h-942z" />
    <glyph glyph-name="hyphen.case" horiz-adv-x="864" 
d="M135 592v211h594v-211h-594z" />
    <glyph glyph-name="guillemotright.aalt" horiz-adv-x="1155" 
d="M610 686l-329 -448l-170 100l219 362l-221 361l172 98l329 -448v-25zM1063 686l-330 -448l-170 100l219 362l-221 361l172 98l330 -448v-25z" />
    <glyph glyph-name="parenleft.case" horiz-adv-x="602" 
d="M348 698q0 -494 178 -882l-159 -70q-190 283 -252 667q-23 135 -23 285q0 410 170 767q49 103 105 186l159 -70q-178 -389 -178 -883z" />
    <glyph glyph-name="guilsinglleft.aalt" horiz-adv-x="704" 
d="M92 711l330 448l170 -100l-219 -363l221 -360l-172 -98l-330 448v25z" />
    <glyph glyph-name="braceright.aalt" horiz-adv-x="751" 
d="M72 -72q217 0 217 222v282q0 121 41 184t135 80v4q-94 16 -135 80t-41 185v282q0 165 -116 206q-42 15 -101 15v150h73q312 0 363 -225q16 -72 16 -164v-271q0 -80 52 -120t131 -41v-197q-78 0 -130 -41t-53 -121v-270q0 -199 -75 -286q-90 -105 -304 -103h-73v149z" />
    <glyph glyph-name="braceleft.aalt" horiz-adv-x="751" 
d="M47 797q78 0 130 41t52 120v271q0 198 76 285q89 104 303 104h74v-150q-171 0 -206 -129q-11 -41 -11 -92v-282q0 -121 -41 -185t-135 -80v-4q94 -16 135 -80t41 -184v-282q0 -165 116 -206q42 -15 101 -16v-149h-74q-312 0 -362 225q-16 72 -17 164v270q0 80 -52 121
t-130 41v197z" />
    <glyph glyph-name="parenright.case" horiz-adv-x="602" 
d="M254 698q0 494 -178 883l160 70q189 -281 251 -667q23 -136 23 -286q0 -406 -170 -767q-49 -103 -104 -185l-160 70q178 388 178 882z" />
    <glyph glyph-name="minus.case" horiz-adv-x="1638" 
d="M362 594v190h912v-190h-912z" />
    <glyph glyph-name="zero.frac" horiz-adv-x="735" 
d="M682 1032q0 -171 -85 -274t-231 -103t-229 102q-84 102 -84 273q0 170 83 274q83 105 229 105q147 0 232 -103t85 -274zM365 1243q-113 0 -113 -211t113 -211q122 0 121 211t-121 211z" />
    <glyph glyph-name="one.frac" horiz-adv-x="534" 
d="M33 1102v172l266 119h143v-721h-188v520h-4l-199 -90h-18z" />
    <glyph glyph-name="two.frac" horiz-adv-x="671" 
d="M49 1284q111 125 290 125q178 0 244 -135q21 -45 21 -113q-1 -115 -139 -221l-139 -109v-4h288v-155h-563v143l301 240q52 41 53 90t-23 76t-71 27t-83 -26t-70 -61z" />
    <glyph glyph-name="three.frac" horiz-adv-x="663" 
d="M414 895q0 35 -26 46t-85 11h-143v158h141q94 0 92 68q0 69 -102 69t-185 -35l-53 150q123 47 254 47t207 -53q76 -52 76 -140t-37 -124t-78 -41v-2q135 -41 135 -181q0 -96 -74 -154t-234 -58q-159 0 -267 55l49 153q88 -43 209 -44t121 75z" />
    <glyph glyph-name="four.frac" horiz-adv-x="696" 
d="M569 1171v-190h86v-156h-86v-153h-186v153h-352v140l184 428h191l-166 -410v-2h143v190h186z" />
    <glyph glyph-name="five.frac" horiz-adv-x="643" 
d="M565 1393v-158h-276l-8 -92h32q123 0 201 -53q78 -52 78 -176t-83 -192t-232 -67q-149 0 -246 35l43 166q87 -37 203 -37t114 86q0 80 -119 78q-66 0 -161 -10l-25 26l37 394h442z" />
    <glyph glyph-name="six.frac" horiz-adv-x="677" 
d="M346 817q102 1 103 97q0 96 -101 96q-49 0 -77 -25t-27 -72q0 -96 102 -96zM432 1151q90 0 151 -62q62 -62 62 -175t-80 -185t-221 -73t-218 75t-78 179t63 194l196 289h217v-11l-190 -243v-2q56 14 98 14z" />
    <glyph glyph-name="seven.frac" horiz-adv-x="620" 
d="M389 1235h-352v158h557v-146l-305 -575h-201v10l301 551v2z" />
    <glyph glyph-name="eight.frac" horiz-adv-x="704" 
d="M352 1120q47 0 70 20q22 20 22 53q0 31 -22 53t-70 22q-47 0 -67 -22q-21 -22 -21 -54t20 -52t68 -20zM512 1049q141 -42 141 -191q0 -86 -83 -144t-219 -58t-218 58t-82 144q0 145 144 191v2q-113 41 -113 169q0 78 74 134t195 55q122 0 197 -55q75 -56 75 -134
q0 -126 -111 -169v-2zM463 893q0 82 -113 82t-110 -82q0 -35 24 -59t88 -25q63 0 87 25t24 59z" />
    <glyph glyph-name="nine.frac" horiz-adv-x="677" 
d="M233 1151q1 -98 103 -97t100 95q0 102 -102 101t-101 -99zM170 928q-135 54 -135 222q0 113 81 186t221 73t217 -76t78 -179t-63 -193l-196 -289h-217v12l190 242v2q-34 -13 -86 -14q-51 -2 -90 14z" />
    <glyph glyph-name="comma.numr" horiz-adv-x="393" 
d="M330 920v-17l-137 -440h-170v16l79 441h228z" />
    <glyph glyph-name="plus.numr" horiz-adv-x="542" 
d="M348 1118h139v-157h-139v-138h-158v138h-135v157h135v137h158v-137z" />
    <glyph glyph-name="hyphen.numr" horiz-adv-x="546" 
d="M78 961v157h391v-157h-391z" />
    <glyph glyph-name="minus.numr" horiz-adv-x="587" 
d="M78 961v157h432v-157h-432z" />
    <glyph glyph-name="parenleft.numr" horiz-adv-x="366" 
d="M219 512q-174 258 -174 499t115 442q31 54 59 97l115 -59q-47 -102 -80 -210t-33 -250t33 -250t80 -212z" />
    <glyph glyph-name="period.numr" horiz-adv-x="389" 
d="M59 792q0 60 37 99q36 39 98 39t99 -39t37 -99t-37 -98t-98 -39q-61 0 -99 38q-37 39 -37 99z" />
    <glyph glyph-name="parenright.numr" horiz-adv-x="366" 
d="M324 1030q0 -214 -115 -421q-31 -54 -59 -97l-115 57q47 104 80 212t33 250t-33 250t-80 210l115 59q174 -258 174 -520z" />
    <glyph glyph-name="zero.dnom" horiz-adv-x="735" 
d="M682 359q0 -173 -84.5 -274t-231.5 -101t-230 102t-83 273t82.5 274.5t230.5 103.5t232 -102.5t84 -275.5zM365 571q-113 0 -113 -210.5t113 -210.5q120 0 120 210.5t-120 210.5z" />
    <glyph glyph-name="one.dnom" horiz-adv-x="534" 
d="M31 430v172l266 119h143v-721h-188v520h-4l-199 -90h-18z" />
    <glyph glyph-name="two.dnom" horiz-adv-x="671" 
d="M406 474q0 101 -95 101q-47 0 -82.5 -25.5t-70.5 -60.5l-109 123q111 125 277 125q121 0 199.5 -62t78.5 -177q0 -76 -40 -130.5t-99 -99.5l-139 -108v-4h288v-156h-563v143l301 240q54 43 54 91z" />
    <glyph glyph-name="three.dnom" horiz-adv-x="663" 
d="M296 147q118 0 118 76q0 35 -26 46.5t-85 11.5h-143v157h141q92 0 92 68t-102 69q-102 0 -185 -34l-53 149q123 47 254 47t207 -52.5t76 -140.5t-37 -123.5t-78 -41.5v-2q135 -41 135 -180q0 -96 -74.5 -154.5t-233.5 -58.5t-267 55l49 154q94 -46 212 -46z" />
    <glyph glyph-name="four.dnom" horiz-adv-x="696" 
d="M569 500v-191h86v-155h-86v-154h-186v154h-352v139l184 428h191l-166 -410v-2h143v191h186z" />
    <glyph glyph-name="five.dnom" horiz-adv-x="641" 
d="M270 311q-66 0 -161 -10l-25 27l37 393h442v-158h-276l-8 -92h32q123 0 201 -53t78 -176t-83 -190.5t-232 -67.5t-246 34l43 166q87 -37 177 -37q91 0 115.5 23t24.5 63q0 78 -119 78z" />
    <glyph glyph-name="six.dnom" horiz-adv-x="679" 
d="M346 145q102 1 103 97q-1 96 -103 96t-102 -96t102 -97zM432 479q90 0 151.5 -63t61.5 -175q0 -113 -81.5 -185t-221.5 -72t-217.5 76.5t-77.5 177.5q0 102 64 194l196 289h217v-10l-190 -244v-2q56 14 98 14z" />
    <glyph glyph-name="seven.dnom" horiz-adv-x="618" 
d="M387 563h-352v158h557v-146l-305 -575h-201v10l301 551v2z" />
    <glyph glyph-name="eight.dnom" horiz-adv-x="704" 
d="M264 522q0 -73 90 -73t90 73q0 31 -22.5 52.5t-69.5 21.5t-67.5 -21.5t-20.5 -52.5zM195 379q-113 42 -113 170q0 78 73.5 133t195.5 55t197 -55t75 -133q0 -127 -111 -170v-2q141 -43 141 -191q0 -86 -83 -144t-219 -58t-218 58t-82 144t42 129t102 62v2zM376 137
q87 0 87.5 83t-111.5 83t-112 -58.5t24.5 -83t111.5 -24.5z" />
    <glyph glyph-name="nine.dnom" horiz-adv-x="679" 
d="M436 477q0 101 -101.5 101t-101.5 -101q0 -94 101.5 -94t101.5 94zM259 242q-97 0 -160.5 62t-63.5 176q0 113 81.5 185t221.5 72q141 0 218 -77t77 -178t-64 -193l-196 -289h-217v12l190 242v2q-37 -14 -87 -14z" />
    <glyph glyph-name="comma.dnom" horiz-adv-x="391" 
d="M330 250v-17l-137 -440h-170v17l79 440h228z" />
    <glyph glyph-name="plus.dnom" horiz-adv-x="538" 
d="M346 446h139v-157h-139v-137h-158v137h-135v157h135v138h158v-138z" />
    <glyph glyph-name="parenright.dnom" horiz-adv-x="368" 
d="M324 380.5q0 -240.5 -73 -369t-101 -171.5l-115 58q47 104 79.5 211.5t32.5 249.5t-32.5 250t-79.5 210l115 60q174 -258 174 -498.5z" />
    <glyph glyph-name="hyphen.dnom" horiz-adv-x="546" 
d="M78 289v157h391v-157h-391z" />
    <glyph glyph-name="minus.dnom" horiz-adv-x="587" 
d="M78 289v157h432v-157h-432z" />
    <glyph glyph-name="parenleft.dnom" horiz-adv-x="368" 
d="M219 -160q-174 258 -174 519.5t174 519.5l115 -60q-47 -102 -80 -209.5t-33 -249.5t33 -250t80 -212z" />
    <glyph glyph-name="period.dnom" horiz-adv-x="385" 
d="M57 120q0 60 37 99t98.5 39t98.5 -39t37 -99t-37 -98t-98.5 -38t-98.5 38t-37 98z" />
    <glyph glyph-name="minus.sinf" horiz-adv-x="587" 
d="M78 45v158h432v-158h-432z" />
    <glyph glyph-name="plus.sinf" horiz-adv-x="538" 
d="M346 203h139v-158h-139v-137h-158v137h-135v158h135v137h158v-137z" />
    <glyph glyph-name="glyph715" 
d="M440 1141v20l121 320h207v-21l-51 -319h-277z" />
    <glyph glyph-name="glyph716" 
d="M768 1393v-21l-121 -319h-207v20l52 320h276z" />
    <glyph glyph-name="glyph717" 
d="M768 -106v-21l-121 -319h-207v20l52 320h276z" />
    <glyph glyph-name="glyph718" 
d="M387 1835h311l121 -279v-20h-262l-170 281v18z" />
    <glyph glyph-name="glyph719" 
d="M387 1536v20l121 279h311v-18l-170 -281h-262z" />
    <glyph glyph-name="glyph720" 
d="M961 1536h-230l-129 162l-127 -162h-229v20l227 279h260l228 -279v-20z" />
    <glyph glyph-name="glyph721" 
d="M246 1835h229l129 -162l127 162h230v-20l-228 -279h-260l-227 279v20z" />
    <glyph glyph-name="glyph722" 
d="M438 1630q-76 0 -137 -71l-55 143q33 57 91.5 96t116.5 39t97 -14.5t73.5 -31.5t68.5 -31.5t96 -14.5t116 70l56 -140q-35 -66 -96 -101.5t-113 -35.5q-74 0 -169.5 46t-144.5 46z" />
    <glyph glyph-name="glyph723" 
d="M711 1677.5q0 65.5 44.5 108.5t116.5 43t116 -43t44 -108.5t-44 -108.5t-117 -43t-116.5 43t-43.5 108.5zM176 1677.5q0 65.5 44 108.5t117 43t117 -43t44 -108.5t-44 -108.5t-117 -43t-117 43t-44 108.5z" />
    <glyph glyph-name="glyph724" 
d="M307 1554v211h594v-211h-594z" />
    <glyph glyph-name="glyph725" 
d="M479 1053v20l60 320h290v-19l-108 -321h-242z" />
    <glyph glyph-name="glyph726" 
d="M606 1757q177 0 268 70l87 -131q-107 -158 -357 -158q-249 0 -356 158l86 131q95 -70 272 -70z" />
    <glyph glyph-name="glyph727" 
d="M354 1706q0 108 70 169.5t180.5 61.5t179 -61t68.5 -169t-68.5 -169t-179 -61t-180.5 60.5t-70 168.5zM626.5 1628q61.5 0 61.5 80q0 37 -22.5 58.5t-61.5 21.5t-62.5 -21.5t-23.5 -59.5t23.5 -58.5t85 -20.5z" />
    <glyph glyph-name="glyph728" 
d="M592 1536v20l162 279h290v-20l-210 -279h-242zM162 1536v20l162 279h290v-20l-211 -279h-241z" />
    <glyph glyph-name="glyph729" 
d="M442 1677.5q0 65.5 44 108.5t117 43t117 -43t44 -108.5t-44 -108.5t-117 -43t-117 43t-44 108.5z" />
    </font>
</defs>
</svg>
