<?xml version="1.0" standalone="no"?>
<!DOCTYPE svg PUBLIC "-//W3C//DTD SVG 1.1//EN" "http://www.w3.org/Graphics/SVG/1.1/DTD/svg11.dtd">
<svg xmlns="http://www.w3.org/2000/svg">
	<defs>
		<font id="ddc-icons" horiz-adv-x="512" >
			<font-face font-family="ddc-icons" units-per-em="512" ascent="480" descent="-32" />
			<missing-glyph horiz-adv-x="512" />
			<glyph glyph-name="3rd-row-seats" unicode="&#xe600;" d="M 68.08 178.56L 41.92 302.56C 37.52 320.96 26.72 323.2 20.16 316.4C 13.6 309.52 20.16 284.24 20.16 284.24L 46.32 146.4L 68.08 178.56Z M 136.64 179.36C 84.4 170.16 72.48 164.72 72.48 164.72L 46.32 128.0H 136.72C 136.72 128.0 145.44 132.64 149.84 137.2C 161.2 148.72 171.6 151.84 171.6 151.84S 198.08 190.48 136.64 179.36Z M 228.16 178.56L 202.0 302.56C 197.6 320.96 186.8 323.2 180.24 316.4C 173.68 309.52 180.24 284.24 180.24 284.24L 206.4 146.4L 228.16 178.56Z M 296.72 179.36C 244.4 170.16 232.56 164.72 232.56 164.72L 206.4 128.0H 296.8C 296.8 128.0 305.52 132.64 309.92 137.2C 321.28 148.72 331.68 151.84 331.68 151.84S 358.16 190.48 296.72 179.36Z M 388.32 178.56L 362.16 302.56C 357.76 320.96 346.96 323.2 340.4 316.4C 333.84 309.52 340.4 284.24 340.4 284.24L 366.56 146.4L 388.32 178.56Z M 456.88 179.36C 404.56 170.16 392.72 164.72 392.72 164.72L 366.56 128.0H 456.96C 456.96 128.0 465.68 132.64 470.08 137.2C 481.44 148.72 491.84 151.84 491.84 151.84S 518.32 190.48 456.88 179.36Z " />
			<glyph glyph-name="action-arrow" unicode="&#xe601;" d="M 51.648 394.784L 187.872 224.576L 51.648 53.216H 142.528L 278.72 224.032L 142.528 394.784Z M 233.28 394.784L 369.536 224.576L 233.28 53.216H 324.128L 460.352 224.032L 324.128 394.784Z " />
			<glyph glyph-name="air-conditioning" unicode="&#xe602;" d="M 227.445714286 218.718857143L 245.164571429 192.547428571L 278.156571429 192.547428571L 293.374857143 218.718857143L 277.344 246.578285714L 244.281142857 246.578285714L 227.445714286 218.718857143Z M 241.030857143 8.27314285714L 241.030857143 67.4377142857L 207.968 48.8434285714L 191.132571429 58.4845714286L 191.132571429 79.336L 240.156571429 107.195428571L 240.156571429 146.085714286L 204.586285714 123.226285714L 204.586285714 164.429714286L 170.594285714 144.828571429L 170.594285714 88.9771428571L 151.993142857 77.4537142857L 136.282285714 87.8525714286L 136.282285714 125.282285714L 84.6811428571 96.1725714286L 62.6422857143 105.445714286L 62.6422857143 129.054857143L 116.798857143 158.664L 82.9234285714 175.688L 82.9234285714 197.297142857L 102.149714286 207.820571429L 150.736 179.211428571L 184.485714286 198.68L 183.673142857 199.305142857L 149.165714286 219.093714286L 182.666285714 239.875428571L 149.049142857 259.344L 100.462857143 230.796571429L 82.2365714286 239.874285714L 82.2365714286 261.421714286L 115.118857143 279.890285714L 62.6422857143 308.382857143L 62.6422857143 331.984L 82.8068571429 342.374857143L 134.517714286 312.515428571L 134.517714286 350.578285714L 150.112 361.093714286L 169.213714286 350.077714286L 169.089142857 293.101714286L 203.838857143 273.250285714L 203.714285714 313.515428571L 240.16 293.906285714L 240.16 332.796571429L 191.129142857 360.718857143L 191.129142857 381.382857143L 207.972571429 391.148571429L 241.027428571 372.547428571L 241.024 431.594285714L 259.945142857 444.0L 279.030857143 431.594285714L 279.030857143 372.547428571L 313.281142857 391.531428571L 330.507428571 380.125714286L 330.507428571 361.531428571L 279.780571429 332.796571429L 279.780571429 293.906285714L 314.483428571 315.077714286L 314.484571429 272.749714286L 350.219428571 292.226285714L 350.219428571 353.148571429L 367.445714286 361.156571429L 385.539428571 353.148571429L 385.539428571 314.195428571L 438.757714286 342.937142857L 457.358857143 331.609142857L 457.358857143 309.570285714L 405.382857143 280.016L 437.883428571 261.797714286L 437.882285714 240.749714286L 421.038857143 231.421714286L 371.140571429 260.914285714L 336.64 239.0L 370.006857143 218.203428571L 335.632 198.421714286L 371.139428571 179.827428571L 421.037714286 207.694857143L 437.068571429 196.366857143L 437.068571429 176.257142857L 405.756571429 158.670857143L 455.608 129.053714286L 455.608 105.811428571L 434.506285714 96.1702857143L 385.537142857 124.045714286L 385.537142857 87.1634285714L 367.942857143 77.328L 350.724571429 87.1634285714L 350.724571429 143.147428571L 314.466285714 163.803428571L 314.466285714 124.913142857L 279.778285714 146.084571429L 279.778285714 107.194285714L 328.809142857 79.3348571429L 328.809142857 57.296L 311.886857143 48.8434285714L 279.019428571 67.4377142857L 279.019428571 8.26628571429L 259.945142857 -4.0L 241.030857143 8.27314285714Z " />
			<glyph glyph-name="airbags" unicode="&#xe603;" d="M 249.664 204.024C 281.44 156.368 313.2 108.712 344.974857143 61.0548571429C 354.862857143 46.2217142857 378.958857143 60.1348571429 368.974857143 75.0868571429C 337.206857143 122.741714286 305.438857143 170.390857143 273.670857143 218.046857143C 263.777142857 232.88 239.68 218.984 249.664 204.024L 249.664 204.024Z M 313.232 344.504C 313.228571429 364.973714286 329.819428571 381.571428571 350.290285714 381.574857143C 370.76 381.578285714 387.356571429 364.987428571 387.361142857 344.517714286C 387.361142857 344.513142857 387.361142857 344.509714286 387.361142857 344.505142857C 387.364571429 324.035428571 370.772571429 307.437714286 350.302857143 307.434285714S 313.235428571 324.022857143 313.232 344.492571429C 313.232 344.496 313.232 344.500571429 313.232 344.504Z M 132.0 323.32C 132.0 369.712 169.608 407.32 216.0 407.32S 300.0 369.712 300.0 323.32C 300.0 276.928 262.392 239.32 216.0 239.32S 132.0 276.928 132.0 323.32Z M 442.912 343.256C 417.904 327.288 394.976 312.632 369.968 296.656C 372.736 290.824 373.576 281.848 372.904 271.064C 400.824 288.896 426.688 305.424 454.608 323.256C 467.152 331.272 455.544 351.328 442.912 343.256Z M 242.872 205.336C 219.144 211.144 206.632 214.2 179.544 220.824C 168.328 223.576 156.744 219.152 150.768 209.112C 127.104 169.4 103.44 129.672 79.776 89.96C 62.912 61.648 106.984 36.04 123.776 64.24C 144.184 98.504 164.6 132.768 185.016 167.04C 213.872 159.974857143 255.456 138.056 289.104 136.216C 273.952 158.969142857 258.030857143 182.6 242.872 205.336Z M 325.656 149.737142857C 358.328 182.32 386.048 297.417142857 356.096 301.617142857C 320.424 306.609142857 292.8 260.961142857 275.184 225.177142857C 291.528 200.646857143 309.312 174.272 325.656 149.737142857Z " />
			<glyph glyph-name="alert" unicode="&#xe604;" d="M 448.0 64.0H 64.0L 256.0 416.0L 448.0 64.0Z M 224.0 320.0V 192.0H 288.0V 320.0H 224.0Z M 224.0 96.0H 288.0V 160.0H 224.0V 96.0Z " />
			<glyph glyph-name="arrow1-down" unicode="&#xe605;" d="M 432.0 339.744L 256.512 207.36L 80.0 339.744V 243.744L 257.024 108.256L 432.0 243.744Z " />
			<glyph glyph-name="arrow1-left" unicode="&#xe606;" d="M 371.744 48.0L 239.36 223.488L 371.744 400.0H 275.744L 140.256 222.976L 275.744 48.0Z " />
			<glyph glyph-name="arrow1-right" unicode="&#xe607;" d="M 140.256 400.0L 272.64 224.512L 140.256 48.0H 236.256L 371.744 225.024L 236.256 400.0Z " />
			<glyph glyph-name="arrow1-up" unicode="&#xe608;" d="M 80.0 108.256L 255.488 240.64L 432.0 108.256V 204.256L 254.976 339.744L 80.0 204.256Z " />
			<glyph glyph-name="arrow2-down" unicode="&#xe609;" d="M 432.0 339.744L 256.512 207.36L 80.0 339.744V 243.744L 257.024 108.256L 432.0 243.744Z " />
			<glyph glyph-name="arrow2-left" unicode="&#xe60a;" d="M 371.744 48.0L 239.36 223.488L 371.744 400.0H 275.744L 140.256 222.976L 275.744 48.0Z " />
			<glyph glyph-name="arrow2-right" unicode="&#xe60b;" d="M 140.256 400.0L 272.64 224.512L 140.256 48.0H 236.256L 371.744 225.024L 236.256 400.0Z " />
			<glyph glyph-name="arrow2-up" unicode="&#xe60c;" d="M 80.0 108.256L 255.488 240.64L 432.0 108.256V 204.256L 254.976 339.744L 80.0 204.256Z " />
			<glyph glyph-name="arrow3-down" unicode="&#xe60d;" d="M 432.0 339.744L 256.512 207.36L 80.0 339.744V 243.744L 257.024 108.256L 432.0 243.744Z " />
			<glyph glyph-name="arrow3-up" unicode="&#xe60e;" d="M 80.0 108.256L 255.488 240.64L 432.0 108.256V 204.256L 254.976 339.744L 80.0 204.256Z " />
			<glyph glyph-name="arrow4-left" unicode="&#xe60f;" d="M 371.744 48.0L 239.36 223.488L 371.744 400.0H 275.744L 140.256 222.976L 275.744 48.0Z " />
			<glyph glyph-name="arrow4-right" unicode="&#xe610;" d="M 140.256 400.0L 272.64 224.512L 140.256 48.0H 236.256L 371.744 225.024L 236.256 400.0Z " />
			<glyph glyph-name="auto-dimming-rear-view-mirror" unicode="&#xe611;" d="M 416.0 271.92C 438.08 271.92 456.0 254.0 456.0 231.92V 152.0C 456.0 129.92 438.08 112.0 416.0 112.0H 96.0C 73.92 112.0 56.0 129.92 56.0 152.0V 231.92C 56.0 254.0 73.92 271.92 96.0 271.92H 416.0M 416.0 295.92H 96.0C 60.64 295.92 32.0 267.28 32.0 231.92V 152.0C 32.0 116.64 60.64 88.0 96.0 88.0H 416.0C 451.36 88.0 480.0 116.64 480.0 152.0V 231.92C 480.0 267.28 451.36 295.92 416.0 295.92L 416.0 295.92Z M 276.96 374.16M 235.04 374.16M 227.04 274.64M 284.96 274.64Z M 384.32 231.6C 384.32 221.128681143 392.808681143 212.64 403.28 212.64C 413.751318857 212.64 422.24 221.128681143 422.24 231.6C 422.24 242.071318857 413.751318857 250.56 403.28 250.56C 392.808681143 250.56 384.32 242.071318857 384.32 231.6Z M 392.0 212.08C 390.88 212.72 389.44 212.32 388.72 211.2L 386.32 207.12C 385.68 206.0 386.08 204.56 387.2 203.84S 389.76 203.6 390.4 204.72L 392.8 208.8C 393.52 210.0 393.12 211.44 392.0 212.08Z M 414.48 251.12C 415.6 250.48 417.04 250.88 417.76 252.0L 420.16 256.08C 420.8 257.2 420.4 258.64 419.28 259.28C 418.16 259.92 416.72 259.52 416.08 258.4L 413.68 254.32C 412.96 253.2 413.36 251.76 414.48 251.12Z M 380.56 221.2L 376.48 218.8C 375.36 218.16 374.96 216.72 375.6 215.6C 376.24 214.48 377.68 214.08 378.88 214.72L 382.96 217.12C 384.08 217.76 384.48 219.2 383.84 220.32C 383.12 221.52 381.68 221.84 380.56 221.2Z M 426.0 242.0L 430.08 244.4C 431.2 245.04 431.6 246.48 430.96 247.6C 430.32 248.72 428.88 249.12 427.68 248.48L 423.6 246.08C 422.48 245.44 422.08 244.0 422.72 242.8S 424.88 241.36 426.0 242.0Z M 380.72 231.6C 380.72 232.88 379.68 234.0 378.32 234.0H 373.6C 372.32 234.0 371.2 232.96 371.2 231.6S 372.24 229.2 373.6 229.2H 378.32C 379.68 229.2 380.72 230.32 380.72 231.6Z M 432.88 234.0H 428.16C 426.88 234.0 425.76 232.96 425.76 231.6S 426.8 229.2 428.16 229.2H 432.88C 434.16 229.2 435.28 230.24 435.28 231.6S 434.16 234.0 432.88 234.0Z M 382.88 246.08L 378.8 248.48C 377.68 249.12 376.24 248.72 375.52 247.6C 374.88 246.48 375.28 245.04 376.4 244.4L 380.48 242.0C 381.6 241.36 383.04 241.76 383.68 242.88S 384.0 245.44 382.88 246.08Z M 430.08 218.88L 426.0 221.28C 424.88 221.92 423.44 221.52 422.8 220.4C 422.16 219.28 422.56 217.84 423.68 217.2L 427.76 214.8C 428.88 214.16 430.32 214.56 431.04 215.68C 431.6 216.72 431.28 218.16 430.08 218.88Z M 388.72 252.0C 389.36 250.88 390.8 250.48 392.0 251.12S 393.52 253.2 392.88 254.4L 390.48 258.48C 389.84 259.6 388.4 260.0 387.28 259.36C 386.16 258.72 385.76 257.28 386.4 256.16L 388.72 252.0Z M 417.76 211.2C 417.12 212.32 415.68 212.72 414.48 212.08S 412.96 210.0 413.6 208.88L 416.0 204.8C 416.64 203.68 418.08 203.28 419.2 203.92S 420.72 206.0 420.08 207.2L 417.76 211.2Z M 403.28 254.16C 404.56 254.16 405.68 255.2 405.68 256.56V 261.28C 405.68 262.56 404.64 263.68 403.28 263.68S 400.88 262.64 400.88 261.28V 256.56C 400.88 255.2 401.92 254.16 403.28 254.16Z M 403.28 209.12C 402.0 209.12 400.88 208.08 400.88 206.72V 202.0C 400.88 200.72 401.92 199.6 403.28 199.6S 405.68 200.64 405.68 202.0V 206.72C 405.6 208.0 404.56 209.12 403.28 209.12Z " />
			<glyph glyph-name="automatic-temperature-control" unicode="&#xe612;" d="M 235.92 185.68V 392.0C 235.92 425.12 209.04 452.0 175.92 452.0S 115.92 425.12 115.92 392.0V 185.68C 86.16 165.68 67.92 132.0 67.92 96.0C 67.92 36.48 116.4 -12.0 175.92 -12.0S 283.92 36.48 283.92 96.0C 283.92 132.0 265.68 165.76 235.92 185.68Z M 175.92 12.0C 129.6 12.0 91.92 49.68 91.92 96.0C 91.92 125.84 108.0 153.68 133.92 168.64L 139.92 172.08V 392.0C 139.92 411.84 156.08 428.0 175.92 428.0S 211.92 411.84 211.92 392.0V 172.16L 217.92 168.72C 243.84 153.68 259.92 125.84 259.92 96.08C 259.92 49.68 222.24 12.0 175.92 12.0Z M 248.0 416.0H 296.0V 400.0H 248.0V 416.0Z M 248.0 384.0H 264.0V 368.0H 248.0V 384.0Z M 248.0 352.0H 264.0V 336.0H 248.0V 352.0Z M 248.0 320.0H 296.0V 304.0H 248.0V 320.0Z M 248.0 288.0H 264.0V 272.0H 248.0V 288.0Z M 248.0 256.0H 264.0V 240.0H 248.0V 256.0Z M 248.0 224.0H 296.0V 208.0H 248.0V 224.0Z M 200.0 153.28V 304.0H 152.0V 153.36C 128.56 143.84 111.92 120.88 111.92 94.0C 111.92 58.64 140.56 30.0 175.92 30.0S 239.92 58.64 239.92 94.0C 239.92 120.8 223.44 143.76 200.0 153.28Z M 404.0 280.0L 440.0 244.0L 464.0 268.0L 404.0 328.0L 344.0 268.0L 368.0 244.0Z M 404.0 184.0L 368.0 220.0L 344.0 196.0L 404.0 136.0L 464.0 196.0L 440.0 220.0Z " />
			<glyph glyph-name="banknote" unicode="&#xe613;" d="M 502.64 310.624L 342.64 470.624C 334.704 478.56 323.2 481.744 312.304 479.056C 306.56 477.648 301.424 474.688 297.36 470.624C 293.728 466.992 290.992 462.496 289.424 457.472C 282.176 433.968 269.648 413.536 251.104 395.008C 226.336 370.256 194.08 351.504 159.952 331.68C 123.728 310.688 86.304 288.928 55.632 258.272C 29.568 232.176 11.824 203.152 1.424 169.456C -2.08 158.08 0.976 145.776 9.36 137.36L 169.36 -22.64C 177.296 -30.576 188.8 -33.76 199.696 -31.072C 205.44 -29.632 210.576 -26.704 214.64 -22.64C 218.272 -19.008 221.008 -14.512 222.576 -9.456C 229.84 14.048 242.368 34.48 260.928 53.008C 285.68 77.76 317.92 96.48 352.08 116.288C 388.272 137.312 425.712 159.072 456.368 189.728C 482.432 215.792 500.176 244.848 510.592 278.544C 514.08 289.904 511.008 302.256 502.64 310.624Z M 192.0 0.0C 139.008 52.992 84.992 107.024 32.0 160.0C 77.472 307.216 274.56 300.784 320.0 448.0C 372.992 395.024 427.024 340.992 480.032 288.0C 434.544 140.816 237.456 147.216 192.0 0.0Z M 312.992 241.6C 307.776 245.968 302.528 248.944 297.248 250.416C 292.0 251.888 286.752 252.48 281.44 252.096C 276.192 251.696 270.816 250.496 265.44 248.432C 260.064 246.336 254.656 244.064 249.216 241.424C 240.624 251.296 232.032 261.056 223.44 270.112C 227.312 273.616 231.072 275.392 234.688 275.52C 238.32 275.68 241.808 275.296 245.12 274.464C 248.496 273.616 251.584 272.896 254.432 272.336C 257.312 271.776 259.808 272.4 262.0 274.24C 264.32 276.24 265.6 278.832 265.776 281.952C 265.936 285.104 264.752 288.176 262.112 291.168C 258.736 295.04 254.672 297.392 249.792 298.256C 244.976 299.104 240.048 299.04 234.912 297.92C 229.856 296.768 225.04 294.864 220.48 292.176S 212.256 286.736 209.536 284.048C 208.496 285.04 207.456 286.016 206.416 286.992C 205.264 288.048 203.824 288.624 202.096 288.592C 200.352 288.592 198.912 287.84 197.728 286.464C 196.576 285.12 196.048 283.552 196.256 281.904C 196.416 280.192 197.104 278.88 198.288 277.872C 199.328 276.992 200.368 276.128 201.408 275.216C 197.312 270.272 193.936 264.816 191.28 259.056C 188.592 253.28 186.992 247.552 186.4 242.0C 185.776 236.4 186.368 231.28 188.08 226.528C 189.792 221.744 192.96 217.68 197.584 213.84C 205.12 207.584 213.984 204.928 224.272 205.52C 234.528 206.144 245.584 209.2 257.472 215.584C 266.912 204.672 276.384 193.84 285.84 183.776C 281.84 180.4 278.336 178.464 275.248 177.84C 272.16 177.184 269.408 177.248 266.912 178.0C 264.416 178.784 262.096 179.904 259.968 181.344C 257.84 182.816 255.744 184.064 253.648 185.088C 251.584 186.112 249.456 186.688 247.28 186.72S 242.784 185.696 240.224 183.504C 237.6 181.216 236.288 178.56 236.288 175.568S 237.664 169.568 240.352 166.512C 243.072 163.456 246.608 160.88 250.88 158.848S 259.984 155.536 265.296 155.184C 270.608 154.816 276.208 155.616 282.112 157.808C 288.048 159.968 293.92 163.872 299.712 169.68C 302.496 166.96 305.312 164.368 308.112 161.872C 309.296 160.848 310.736 160.336 312.48 160.464C 314.16 160.528 315.632 161.312 316.8 162.72C 317.984 164.16 318.48 165.744 318.304 167.408C 318.144 169.088 317.456 170.384 316.304 171.312C 313.488 173.568 310.672 175.936 307.872 178.432C 312.656 184.304 316.496 190.496 319.344 196.624C 322.192 202.784 323.872 208.72 324.432 214.224C 324.992 219.76 324.336 224.752 322.528 229.28C 320.736 233.872 317.552 237.808 312.992 241.6Z M 223.536 230.752C 219.008 230.56 215.056 232.064 211.6 235.408C 210.128 236.816 209.104 238.528 208.48 240.56C 207.824 242.592 207.6 244.816 207.856 247.248C 208.08 249.648 208.8 252.16 210.048 254.688C 211.232 257.216 212.992 259.744 215.232 262.192C 223.344 254.128 231.44 245.28 239.552 236.128C 233.408 232.752 228.064 230.944 223.536 230.752Z M 299.008 198.72C 297.568 196.064 295.92 193.696 293.984 191.632C 285.008 200.688 276.048 210.64 267.104 220.848C 269.392 221.872 271.792 222.944 274.384 224.032S 279.568 225.84 282.16 226.288C 284.816 226.688 287.44 226.576 290.064 225.952C 292.656 225.296 295.12 223.888 297.408 221.664C 299.664 219.408 301.088 217.072 301.664 214.544C 302.288 211.984 302.32 209.392 301.888 206.736C 301.424 204.064 300.48 201.408 299.008 198.72Z M 235.472 125.12C 238.624 127.664 243.264 127.536 246.16 124.592C 249.296 121.472 249.296 116.368 246.16 113.248C 245.904 112.992 245.632 112.816 245.344 112.592L 245.376 112.56C 235.248 104.864 226.928 97.936 217.952 88.96C 209.84 80.864 202.512 72.336 196.176 63.68L 185.952 49.68C 185.632 49.104 185.248 48.576 184.768 48.08C 181.632 44.96 176.528 44.96 173.408 48.08C 170.688 50.8 170.352 54.992 172.352 58.112L 172.32 58.144L 183.264 73.088C 190.096 82.432 197.952 91.584 206.64 100.272C 215.68 109.344 225.44 117.44 235.44 125.12H 235.472Z M 294.048 356.56C 302.144 364.656 309.456 373.152 315.808 381.856L 326.432 396.416C 326.816 397.104 327.248 397.792 327.84 398.384C 330.992 401.536 336.096 401.536 339.248 398.384C 342.24 395.376 342.368 390.624 339.648 387.44L 339.68 387.408L 328.736 372.4C 321.888 363.056 314.048 353.936 305.36 345.248C 296.32 336.208 286.576 328.08 276.576 320.4L 276.512 320.432C 273.328 317.504 268.384 317.568 265.328 320.656C 262.176 323.808 262.176 328.944 265.328 332.096C 265.888 332.688 266.544 333.104 267.2 333.472C 276.608 340.656 285.68 348.192 294.048 356.56Z " />
			<glyph glyph-name="battery" unicode="&#xe614;" d="M 416.0 336.0L 416.0 368.0L 336.0 368.0L 336.0 336.0L 176.0 336.0L 176.0 368.0L 96.0 368.0L 96.0 336.0L 64.0 336.0L 64.0 80.0L 448.0 80.0L 448.0 336.0L 416.0 336.0Z M 416.0 112.0L 96.0 112.0L 96.0 304.0L 416.0 304.0L 416.0 112.0Z M 120.0 224.0L 200.0 224.0L 200.0 192.0L 120.0 192.0Z M 328.0 168.0L 360.0 168.0L 360.0 192.0L 384.0 192.0L 384.0 224.0L 360.0 224.0L 360.0 248.0L 328.0 248.0L 328.0 224.0L 304.0 224.0L 304.0 192.0L 328.0 192.0Z " />
			<glyph glyph-name="bedlength" unicode="&#xe615;" d="M 109.070857143 164.344C 89.0868571429 164.344 72.8948571429 148.156571429 72.8948571429 128.172571429C 72.8948571429 108.203428571 89.0857142857 92.0011428571 109.070857143 92.0011428571C 129.04 92.0011428571 145.230857143 108.204571429 145.230857143 128.172571429C 145.230857143 148.156571429 129.038857143 164.344 109.070857143 164.344Z M 109.070857143 104.531428571C 96.008 104.531428571 85.4342857143 115.109714286 85.4342857143 128.172571429S 96.008 151.813714286 109.070857143 151.813714286C 122.121142857 151.813714286 132.704 141.235428571 132.704 128.172571429C 132.702857143 115.124571429 122.129142857 104.531428571 109.070857143 104.531428571Z M 392.672 164.344C 372.688 164.344 356.500571429 148.156571429 356.500571429 128.172571429C 356.500571429 108.203428571 372.688 92.0 392.672 92.0C 412.641142857 92.0 428.843428571 108.203428571 428.843428571 128.171428571C 428.828571429 148.156571429 412.641142857 164.344 392.672 164.344Z M 392.672 104.531428571C 379.609142857 104.531428571 369.016 115.109714286 369.016 128.172571429S 379.610285714 151.813714286 392.672 151.813714286C 405.718857143 151.813714286 416.313142857 141.235428571 416.313142857 128.172571429C 416.312 115.124571429 405.702857143 104.531428571 392.672 104.531428571Z M 490.093714286 166.124571429C 490.093714286 169.389714286 488.531428571 171.656 488.531428571 171.656L 481.578285714 171.656C 490.187428571 191.656 479.547428571 208.405714286 479.547428571 208.405714286L 313.500571429 208.405714286C 313.500571429 208.405714286 308.094857143 238.510857143 306.469714286 246.003428571C 304.860571429 253.496 303.469714286 254.198857143 264.712 254.198857143C 220.742857143 254.198857143 212.208 250.940571429 203.329142857 247.168C 194.458285714 243.402285714 148.993142857 211.171428571 148.993142857 211.171428571S 69.36 206.140571429 52.1142857143 202.030857143C 34.864 197.937142857 34.6102857143 186.374857143 34.6102857143 186.374857143L 34.0628571429 173.749714286C 34.0628571429 173.749714286 31.2662857143 171.390857143 30.2971428571 169.344C 29.328 167.281142857 30.2971428571 157.796571429 30.2971428571 148.500571429S 37.328 135.313142857 37.328 135.313142857L 66.9017142857 129.141714286C 67.4057142857 151.985142857 86.0697142857 170.376 109.061714286 170.376C 132.112 170.376 150.824 151.891428571 151.221714286 128.907428571L 348.069714286 129.876571429L 350.546285714 130.110857143C 351.577142857 152.501714286 369.998857143 170.361142857 392.656 170.361142857C 412.515428571 170.361142857 429.140571429 156.626285714 433.609142857 138.142857143L 468.484571429 141.501714286C 491.953142857 141.499428571 490.093714286 162.859428571 490.093714286 166.124571429Z M 39.7188571429 176.171428571C 39.7188571429 176.171428571 38.3828571429 186.374857143 44.1211428571 191.656C 49.856 196.937142857 66.848 196.843428571 66.848 196.843428571S 62.84 176.171428571 39.7188571429 176.171428571Z M 256.749714286 195.344L 242.686857143 195.344C 241.573714286 195.344 240.678857143 196.250285714 240.678857143 197.344C 240.678857143 198.453714286 241.585142857 199.344 242.686857143 199.344L 256.749714286 199.344C 257.862857143 199.344 258.761142857 198.453714286 258.761142857 197.344C 258.777142857 196.250285714 257.862857143 195.344 256.749714286 195.344Z M 258.176 211.594285714C 258.176 211.594285714 258.336 207.578285714 253.817142857 207.578285714S 173.274285714 207.578285714 173.274285714 207.578285714S 169.0 208.405714286 171.68 211.171428571C 171.68 211.171428571 197.558857143 237.198857143 212.2 242.315428571C 226.864 247.433142857 256.742857143 247.252571429 256.742857143 247.252571429S 259.922285714 246.916571429 260.094857143 244.150857143C 260.281142857 241.386285714 258.176 211.594285714 258.176 211.594285714Z M 297.812571429 209.344L 272.906285714 209.156571429C 270.710857143 209.156571429 268.890285714 210.953142857 268.890285714 213.172571429L 268.890285714 243.309714286C 268.890285714 245.528 270.710857143 247.333714286 272.906285714 247.333714286L 295.156571429 247.262857143C 297.36 247.262857143 299.172571429 245.466285714 299.172571429 243.246857143L 301.828571429 213.344C 301.828571429 211.140571429 300.016 209.344 297.812571429 209.344Z M 477.452571429 171.156571429L 470.0 171.156571429L 478.937142857 199.953142857C 485.062857143 191.077714286 477.452571429 171.156571429 477.452571429 171.156571429Z M 316.0 307.996571429L 332.0 307.996571429L 332.0 259.996571429L 316.0 259.996571429Z M 460.0 307.996571429L 476.0 307.996571429L 476.0 259.996571429L 460.0 259.996571429Z M 316.0 307.996571429L 476.0 307.996571429L 476.0 291.996571429L 316.0 291.996571429Z " />
			<glyph glyph-name="blind-spot-sensor" unicode="&#xe616;" d="M 341.44 422.0C 327.28 437.12 294.0 439.52 259.92 440.0C 259.84 440.0 259.76 440.0 259.68 440.0C 259.6 440.0 259.6 440.0 259.52 440.0C 225.44 440.0 192.16 438.08 177.76 423.2C 164.24 409.12 153.2 384.72 152.96 360.72C 152.8 338.32 151.28 122.0 150.8 56.72C 150.64 34.24 155.68 11.84 166.4 0.64C 176.96 -10.32 215.2 -15.68 254.32 -16.0C 292.8 -16.24 339.68 -11.52 350.4 -0.64C 361.28 10.4 358.64 32.8 358.8 55.28C 359.28 120.56 360.8 336.88 360.96 359.28C 361.2 383.28 354.8 407.76 341.44 422.0Z M 168.4 272.64L 184.08 224.56L 183.76 176.56L 167.84 184.64L 168.4 272.64Z M 167.6 152.64L 183.52 144.56L 183.04 80.56L 166.96 64.64L 167.6 152.64Z M 256.56 18.96C 256.56 19.04 179.52 30.88 179.52 30.88L 197.76 53.84C 197.76 53.84 223.68 48.24 254.88 48.0C 284.72 47.76 315.84 52.96 315.84 52.96L 333.76 29.68C 333.76 29.76 254.64 16.0 256.56 18.96Z M 342.96 63.36L 327.04 79.44L 327.52 143.44L 343.6 151.36L 342.96 63.36Z M 343.76 183.36L 327.68 175.44L 328.0 223.44L 344.32 271.36L 343.76 183.36Z M 312.32 255.6C 312.32 255.6 280.4 263.84 256.4 264.0C 232.4 264.16 200.32 256.4 200.32 256.4L 176.8 328.56C 176.8 328.56 197.2 352.4 256.96 352.0C 316.48 351.6 344.8 327.36 344.8 327.36L 312.32 255.6Z M 83.84 325.6L 73.44 336.0C 24.56 287.12 24.56 207.68 73.44 158.8L 83.84 169.28C 40.72 212.4 40.72 282.48 83.84 325.6Z M 99.52 309.92C 65.04 275.44 65.04 219.36 99.52 184.88L 109.92 195.28C 81.2 224.0 81.2 270.8 109.92 299.52L 99.52 309.92Z M 125.6 283.92C 115.84 274.16 110.48 261.2 110.48 247.44C 110.48 233.6 115.84 220.72 125.6 210.96L 136.0 221.36C 129.04 228.32 125.2 237.6 125.2 247.44S 129.04 266.56 136.0 273.52L 125.6 283.92Z M 443.36 336.0L 432.96 325.52C 476.08 282.4 476.08 212.32 432.96 169.2L 443.36 158.8C 492.24 207.68 492.24 287.12 443.36 336.0Z M 417.28 309.92L 406.88 299.52C 435.6 270.8 435.6 224.0 406.88 195.28L 417.28 184.88C 451.76 219.36 451.76 275.44 417.28 309.92Z M 380.88 273.44C 387.84 266.48 391.68 257.2 391.68 247.36S 387.84 228.24 380.88 221.28L 391.28 210.88C 401.04 220.64 406.4 233.6 406.4 247.36C 406.4 261.2 401.04 274.08 391.28 283.84L 380.88 273.44Z " />
			<glyph glyph-name="bodystyle-cargo-van" unicode="&#xe617;" d="M 383.36 162.928C 364.88 162.928 349.888 147.952 349.888 129.472C 349.888 110.976 364.864 96.016 383.36 96.016C 401.856 96.016 416.848 110.992 416.848 129.472C 416.848 147.968 401.84 162.928 383.36 162.928Z M 383.36 103.856C 369.216 103.856 357.776 115.312 357.776 129.456C 357.776 143.584 369.232 155.04 383.36 155.04C 397.52 155.04 408.96 143.584 408.96 129.456C 408.96 115.328 397.52 103.856 383.36 103.856Z M 140.016 162.928C 121.52 162.928 106.544 147.952 106.544 129.472C 106.544 110.976 121.536 96.016 140.016 96.016S 173.472 110.992 173.472 129.472C 173.472 147.968 158.496 162.928 140.016 162.928Z M 140.016 103.856C 125.872 103.856 114.416 115.312 114.416 129.456C 114.416 143.584 125.872 155.04 140.016 155.04C 154.144 155.04 165.6 143.584 165.6 129.456C 165.6 115.328 154.144 103.856 140.016 103.856Z M 462.656 165.536C 461.904 170.48 460.384 172.576 455.776 176.736C 454.096 202.288 449.712 242.096 442.032 259.424C 439.936 264.16 436.576 265.152 430.288 265.888C 345.408 267.456 254.256 265.136 198.512 262.88C 168.576 258.864 132.448 215.968 132.448 215.968S 88.88 205.968 70.912 197.472C 52.944 188.976 47.68 146.32 48.528 145.104C 49.376 143.904 52.576 142.608 52.576 142.608L 52.224 131.088C 52.224 131.088 50.512 130.144 50.512 128.672C 50.512 127.184 60.352 122.768 60.352 122.768L 99.728 121.456L 101.472 121.472C 100.944 124.064 100.656 126.72 100.656 129.472C 100.656 151.232 118.288 168.848 140.032 168.848C 161.76 168.848 179.392 151.232 179.392 129.472C 179.392 126.96 179.12 124.496 178.688 122.096L 344.512 123.6C 344.224 125.52 344.016 127.472 344.016 129.488C 344.016 151.248 361.648 168.848 383.392 168.848C 405.136 168.848 422.752 151.232 422.752 129.488C 422.752 129.088 422.72 128.688 422.704 128.304C 442.608 129.808 452.432 131.136 453.44 131.472C 455.888 132.272 461.328 134.544 462.672 137.616C 464.016 140.656 463.36 159.984 462.672 165.504Z M 63.28 174.096C 63.28 174.096 64.88 183.808 70.176 188.352C 75.456 192.912 113.616 199.312 113.616 199.312S 97.36 168.432 63.296 174.096Z M 148.336 204.512C 145.328 205.328 143.488 208.512 147.648 212.128C 150.24 214.352 166.336 235.28 188.496 247.344C 194.368 250.544 210.096 251.888 234.752 250.976V 206.704C 179.856 204.096 149.632 204.16 148.336 204.512Z M 233.68 190.848H 217.92C 216.832 190.848 215.952 191.728 215.952 192.8C 215.952 193.904 216.848 194.768 217.92 194.768H 233.68C 234.768 194.768 235.648 193.888 235.648 192.8C 235.632 191.728 234.752 190.848 233.68 190.848Z M 272.4 194.784C 273.488 194.784 274.368 193.904 274.368 192.816C 274.368 191.744 273.488 190.864 272.4 190.864H 256.64C 255.552 190.864 254.672 191.744 254.672 192.816C 254.672 193.92 255.552 194.784 256.64 194.784Z M 451.984 179.44H 437.904L 447.136 197.536L 450.592 197.536C 453.664 190.0 451.968 179.44 451.968 179.44Z " />
			<glyph glyph-name="bodystyle-convertible" unicode="&#xe618;" d="M 394.128 162.88C 375.656 162.88 360.688 147.92 360.688 129.44C 360.688 110.952 375.656 95.992 394.128 95.992C 412.624 95.992 427.584 110.952 427.584 129.44C 427.56 147.896 412.608 162.88 394.128 162.88Z M 394.128 103.848C 380.0 103.848 368.584 115.328 368.584 129.44C 368.584 143.552 380.032 154.992 394.128 154.992C 408.24 154.992 419.688 143.544 419.688 129.44C 419.704 115.32 408.256 103.848 394.128 103.848Z M 134.488 162.88C 116.016 162.88 101.048 147.92 101.048 129.44C 101.048 110.952 116.016 95.992 134.488 95.992S 167.936 110.952 167.936 129.44C 167.928 147.896 152.952 162.88 134.488 162.88Z M 134.488 103.848C 120.36 103.848 108.92 115.328 108.92 129.44C 108.92 143.552 120.36 154.992 134.488 154.992C 148.608 154.992 160.056 143.544 160.056 129.44C 160.056 115.328 148.608 103.848 134.488 103.848Z M 472.816 164.36C 470.848 166.824 461.0 172.72 461.0 172.72S 461.0 186.512 461.0 198.296C 447.232 206.144 416.752 206.144 416.752 206.144L 364.624 200.24C 364.624 200.24 356.752 217.952 354.792 217.952C 352.824 217.952 346.904 212.048 354.792 198.296L 295.776 198.296C 295.776 198.296 287.888 217.952 285.944 217.952C 283.976 217.952 276.112 210.088 285.944 196.32L 185.624 194.36L 250.536 222.864C 250.536 222.864 250.04 226.144 246.6 225.816C 243.16 225.488 156.112 194.336 156.112 194.336S 81.376 188.44 53.84 160.888C 53.84 160.888 44.008 148.592 45.976 140.72C 45.976 140.72 49.912 127.44 55.808 123.52C 61.024 120.024 90.256 118.08 96.928 117.688C 95.768 121.392 95.144 125.336 95.144 129.424C 95.144 151.136 112.76 168.752 134.48 168.752C 156.208 168.752 173.816 151.152 173.816 129.424C 173.816 123.872 172.656 118.592 170.584 113.808C 170.584 113.76 170.576 113.712 170.568 113.68L 356.616 117.568C 355.44 121.304 354.792 125.272 354.792 129.4C 354.792 151.112 372.384 168.728 394.12 168.728C 415.84 168.728 433.464 151.128 433.464 129.4C 433.464 126.016 432.976 122.744 432.184 119.616C 438.68 121.856 461.288 129.688 462.96 131.36C 464.92 133.32 470.824 139.216 472.792 144.16C 474.8 149.12 474.8 161.896 472.816 164.36Z M 90.456 165.312L 61.712 157.744C 61.712 157.744 67.76 174.384 101.048 175.912L 90.456 165.312Z M 287.888 180.568L 272.168 180.568C 271.064 180.568 270.2 181.456 270.2 182.536C 270.2 183.624 271.088 184.504 272.168 184.504L 287.888 184.504C 289.0 184.504 289.856 183.624 289.856 182.536C 289.856 181.464 289.0 180.568 287.888 180.568Z M 457.08 172.72L 443.296 172.72C 443.296 172.72 439.376 192.384 457.064 194.368L 457.08 172.72L 457.08 172.72Z " />
			<glyph glyph-name="bodystyle-coupe" unicode="&#xe619;" d="M 396.496 161.264C 378.472 161.264 363.864 146.656 363.864 128.64C 363.864 110.608 378.472 96.0 396.496 96.0S 429.136 110.608 429.136 128.64C 429.144 146.656 414.52 161.264 396.496 161.264Z M 396.496 103.672C 382.704 103.672 371.544 114.84 371.544 128.624S 382.712 153.592 396.496 153.592S 421.464 142.416 421.464 128.624C 421.472 114.84 410.304 103.672 396.496 103.672Z M 462.904 170.864C 460.992 176.864 457.728 186.488 451.216 193.576C 444.72 200.672 349.944 231.488 308.664 234.536C 267.384 237.584 241.144 234.704 231.224 231.824C 221.312 228.936 153.152 197.744 153.152 197.744S 58.592 188.304 50.912 154.072C 50.912 154.072 45.712 143.192 46.032 142.512S 48.992 141.0 48.992 141.0L 48.992 130.512C 48.992 130.512 46.328 128.624 46.16 127.832C 45.432 124.664 94.92 115.664 99.4 115.184C 99.416 115.184 100.808 115.184 103.304 115.184C 101.736 119.376 100.832 123.904 100.832 128.64C 100.832 149.848 118.024 167.032 139.232 167.032C 160.44 167.032 177.632 149.864 177.632 128.64C 177.632 123.904 176.736 119.384 175.16 115.176C 249.952 115.176 354.088 115.184 360.576 115.184C 359.008 119.376 358.112 123.904 358.112 128.64C 358.112 149.848 375.296 167.032 396.504 167.032S 434.896 149.864 434.896 128.64C 434.896 128.344 434.872 128.072 434.856 127.768C 446.976 129.864 455.776 131.4 456.024 131.52C 458.584 132.808 464.976 139.528 465.8 145.768C 466.576 151.984 464.816 164.864 462.904 170.864Z M 59.672 157.296C 57.504 160.072 62.184 167.624 69.032 170.752C 75.872 173.864 93.032 176.152 94.232 173.864C 95.424 171.592 61.832 154.536 59.672 157.296Z M 308.632 184.472L 294.4 184.152C 293.568 184.136 292.864 184.8 292.848 185.648L 292.832 186.456C 292.808 187.288 293.472 187.976 294.312 187.992L 308.552 188.32C 309.384 188.336 310.088 187.664 310.104 186.824L 310.128 186.016C 310.136 185.168 309.472 184.488 308.632 184.472Z M 311.088 198.408L 171.872 193.912C 171.872 193.912 215.384 219.464 236.504 225.6C 248.864 229.176 281.648 230.192 312.144 226.832L 311.088 198.408Z M 366.744 203.4C 363.928 202.496 346.04 200.936 322.632 199.232L 323.616 225.36C 341.616 222.744 359.792 218.56 375.384 212.464C 375.384 212.464 375.856 206.344 366.744 203.4Z M 451.696 174.704L 432.992 191.984C 432.992 191.984 439.696 194.088 447.976 191.984C 453.56 186.824 457.76 175.184 457.76 175.184L 451.696 174.704Z M 139.224 161.264C 121.192 161.264 106.584 146.656 106.584 128.64C 106.584 110.608 121.192 96.0 139.224 96.0C 157.248 96.0 171.864 110.608 171.864 128.64C 171.864 146.656 157.256 161.264 139.224 161.264Z M 139.224 103.672C 125.432 103.672 114.264 114.84 114.264 128.624S 125.432 153.592 139.224 153.592C 153.016 153.592 164.184 142.416 164.184 128.624C 164.192 114.84 153.016 103.672 139.224 103.672Z " />
			<glyph glyph-name="bodystyle-crossover" unicode="&#xe61a;" d="M 399.152 164.504C 380.24 164.504 364.904 149.168 364.904 130.264C 364.904 111.344 380.24 96.0 399.152 96.0S 433.408 111.344 433.408 130.264C 433.408 149.168 418.064 164.504 399.152 164.504Z M 399.152 104.064C 384.672 104.064 372.976 115.784 372.976 130.248S 384.696 156.44 399.152 156.44C 413.632 156.44 425.344 144.704 425.344 130.248C 425.344 115.784 413.624 104.064 399.152 104.064Z M 129.144 164.504C 110.224 164.504 94.888 149.168 94.888 130.264C 94.888 111.344 110.224 96.0 129.144 96.0C 148.064 96.0 163.4 111.344 163.4 130.264C 163.4 149.168 148.064 164.504 129.144 164.504Z M 129.144 104.064C 114.672 104.064 102.944 115.784 102.944 130.248S 114.672 156.44 129.144 156.44C 143.624 156.44 155.336 144.704 155.336 130.248C 155.336 115.784 143.616 104.064 129.144 104.064Z M 466.904 172.312C 466.904 172.312 467.544 200.904 465.768 203.92C 464.008 206.936 423.32 233.016 423.32 233.016S 426.712 238.68 425.584 239.824S 421.304 241.328 415.272 241.08C 322.32 252.792 249.032 250.656 232.904 245.36C 216.784 240.072 194.872 232.136 146.504 205.944C 146.504 205.944 70.688 192.72 62.632 188.696C 54.576 184.664 48.528 180.648 44.496 164.52C 44.496 164.52 42.104 162.896 40.464 160.488C 38.824 158.096 37.568 126.872 40.464 124.224C 43.36 121.576 83.784 117.16 83.784 117.16L 90.976 117.336C 89.6 121.416 88.816 125.736 88.816 130.256C 88.816 152.504 106.864 170.544 129.112 170.544C 151.376 170.544 169.416 152.504 169.416 130.256C 169.416 126.448 168.864 122.784 167.88 119.32L 356.816 124.208L 359.312 124.392C 359.032 126.296 358.84 128.248 358.84 130.248C 358.84 152.488 376.88 170.536 399.128 170.536C 421.368 170.536 439.4 152.536 439.432 130.312L 465.632 132.264C 465.656 132.28 481.896 154.824 466.904 172.312Z M 77.512 175.344C 72.712 172.032 50.944 165.768 50.944 165.768S 51.584 174.328 58.744 181.928L 90.48 186.8C 90.48 186.8 82.312 178.64 77.512 175.344Z M 274.208 192.72L 260.112 192.72C 259.0 192.72 258.112 193.624 258.112 194.736S 259.016 196.752 260.112 196.752L 274.208 196.752C 275.328 196.752 276.232 195.848 276.232 194.736S 275.328 192.72 274.208 192.72Z M 279.736 205.688C 223.968 204.016 172.136 203.16 171.288 204.48C 169.44 207.328 217.296 235.376 239.968 239.576C 247.976 241.064 263.888 241.928 281.552 242.336L 279.736 205.688Z M 293.896 242.52C 316.76 242.76 340.16 242.296 351.744 241.384L 372.912 209.208C 350.872 208.128 322.88 207.056 294.808 206.144L 293.896 242.52Z M 370.952 196.752L 356.84 196.752C 355.712 196.752 354.808 197.656 354.808 198.76S 355.712 200.776 356.84 200.776L 370.952 200.776C 372.064 200.776 372.968 199.872 372.968 198.76C 372.968 197.64 372.064 196.752 370.952 196.752Z M 416.464 212.704C 415.968 211.816 401.864 210.728 380.656 209.608L 360.792 239.824C 374.36 235.296 418.328 216.144 416.464 212.704Z M 462.248 184.28L 450.536 183.152L 436.424 196.12L 451.864 207.456C 451.864 207.456 459.624 202.976 461.12 200.784C 462.64 198.576 462.248 184.28 462.248 184.28Z " />
			<glyph glyph-name="bodystyle-hatchback" unicode="&#xe61b;" d="M 384.816 161.28C 366.8 161.28 352.184 146.672 352.184 128.64S 366.8 96.0 384.816 96.0C 402.84 96.0 417.464 110.608 417.464 128.64C 417.464 146.656 402.832 161.28 384.816 161.28Z M 384.816 103.672C 371.024 103.672 359.872 114.84 359.872 128.64C 359.872 142.424 371.04 153.592 384.816 153.592C 398.608 153.592 409.784 142.424 409.784 128.64C 409.784 114.848 398.6 103.672 384.816 103.672Z M 153.976 161.28C 135.952 161.28 121.336 146.672 121.336 128.64S 135.944 96.0 153.976 96.0S 186.616 110.608 186.616 128.64C 186.616 146.656 172.0 161.28 153.976 161.28Z M 153.976 103.672C 140.192 103.672 129.016 114.84 129.016 128.64C 129.016 142.424 140.192 153.592 153.976 153.592C 167.768 153.592 178.936 142.424 178.936 128.64C 178.928 114.848 167.76 103.672 153.976 103.672Z M 434.616 167.736C 434.616 167.736 435.336 186.392 433.32 191.128C 431.304 195.88 429.808 201.792 406.68 223.896C 406.68 223.896 415.088 230.16 409.568 230.6C 409.568 230.6 321.712 244.368 244.784 230.392C 216.272 225.208 199.416 212.464 176.952 194.96C 176.952 194.96 87.72 184.832 74.552 154.928C 74.552 154.928 71.384 153.336 70.952 150.752C 70.52 148.168 72.824 126.992 72.824 126.992S 74.712 121.152 79.472 120.288C 83.016 119.664 106.752 117.616 118.584 116.632C 117.152 120.6 116.328 124.88 116.328 129.368C 116.328 150.216 133.232 167.128 154.096 167.128C 174.96 167.128 191.864 150.232 191.864 129.368C 191.864 125.304 191.2 121.408 190.024 117.752L 347.928 121.96C 347.44 124.352 347.184 126.816 347.184 129.368C 347.184 150.216 364.088 167.128 384.96 167.128C 405.816 167.128 422.728 150.232 422.728 129.368C 422.728 129.272 422.712 129.2 422.712 129.128L 433.768 129.72C 433.768 129.72 440.872 136.824 441.104 159.648C 441.096 160.032 434.616 167.736 434.616 167.736Z M 80.6 156.064C 77.872 158.8 97.88 175.08 116.896 175.08C 135.904 175.08 90.968 145.688 80.6 156.064Z M 308.728 180.264L 294.896 180.264C 293.96 180.264 293.176 181.056 293.176 182.0C 293.176 182.952 293.96 183.728 294.896 183.728L 308.728 183.728C 309.696 183.728 310.464 182.952 310.464 182.0S 309.696 180.264 308.728 180.264Z M 194.008 190.2C 194.008 190.2 211.152 215.0 236.096 221.984C 260.792 228.92 287.68 229.072 311.472 229.936L 312.192 195.232C 259.832 191.408 194.008 190.2 194.008 190.2Z M 372.832 199.984C 364.416 199.264 346.688 197.816 325.536 196.216L 323.704 230.232C 350.784 230.56 370.704 228.656 372.104 227.776C 374.848 226.064 402.648 202.576 372.832 199.984Z M 431.976 171.624C 431.976 171.624 421.616 171.624 420.144 171.624C 418.688 171.624 418.312 176.016 418.408 176.872C 418.536 177.704 420.528 187.48 420.736 188.432C 420.92 189.376 421.984 188.904 422.736 188.904C 423.48 188.904 428.52 188.904 428.52 188.904C 433.056 187.168 431.976 171.624 431.976 171.624Z " />
			<glyph glyph-name="bodystyle-luxury" unicode="&#xe61c;" d="M 495.608 162.392C 494.504 164.768 487.608 171.192 487.608 171.192S 488.24 180.472 486.64 189.6C 485.048 198.72 478.968 201.272 478.968 201.272L 412.792 205.44C 363.032 234.56 336.0 234.544 336.0 234.544S 256.192 239.104 231.04 232.144S 135.152 193.904 135.152 193.904S 49.552 185.104 34.032 178.544C 18.512 172.0 18.352 152.0 18.352 152.0L 16.264 149.904C 16.264 149.904 15.664 135.872 16.264 134.864C 16.864 133.856 24.104 132.776 24.104 132.776S 30.816 120.616 35.784 117.576C 40.744 114.544 75.936 114.384 75.936 114.384L 82.328 114.4C 80.568 118.808 79.576 123.592 79.576 128.64C 79.576 149.832 96.768 167.032 117.976 167.032S 156.376 149.848 156.376 128.64C 156.376 123.688 155.4 118.968 153.704 114.624L 347.736 115.168C 346.184 119.352 345.264 123.88 345.264 128.64C 345.264 149.832 362.448 167.032 383.656 167.032C 404.872 167.032 422.064 149.848 422.064 128.64C 422.064 126.856 421.896 125.136 421.672 123.448C 443.968 126.096 483.824 128.544 484.864 129.28C 487.488 131.112 493.696 141.576 494.472 144.472C 495.24 147.384 496.704 160.016 495.608 162.392Z M 53.712 164.16L 30.112 162.152C 32.024 171.752 40.352 174.552 40.352 174.552L 62.912 177.432L 53.712 164.16Z M 262.984 183.36L 247.632 183.36C 246.576 183.36 245.712 184.208 245.712 185.28C 245.712 186.328 246.576 187.184 247.632 187.184L 262.984 187.184C 264.048 187.184 264.896 186.328 264.896 185.28C 264.896 184.216 264.032 183.36 262.984 183.36Z M 267.36 197.848L 171.784 196.312C 171.784 196.312 214.024 222.544 236.576 226.864C 244.776 228.432 258.568 229.112 273.176 229.28L 267.36 197.848Z M 285.12 198.136L 285.64 229.312C 307.216 229.176 335.968 228.176 339.808 227.488C 341.016 227.28 343.16 226.352 345.912 224.992L 348.304 199.008L 285.12 198.136Z M 382.704 183.36L 367.344 183.36C 366.28 183.36 365.424 184.208 365.424 185.28C 365.424 186.328 366.28 187.184 367.344 187.184L 382.704 187.184C 383.768 187.184 384.608 186.328 384.608 185.28C 384.624 184.216 383.768 183.36 382.704 183.36Z M 353.784 199.184L 351.688 221.92C 366.36 213.776 388.296 199.672 388.296 199.672L 353.784 199.184Z M 482.16 180.36L 479.048 180.36L 464.552 195.512L 477.64 195.472C 477.64 195.472 482.64 190.44 482.16 180.36Z M 383.672 161.28C 365.64 161.28 351.032 146.672 351.032 128.64S 365.64 96.0 383.672 96.0C 401.688 96.0 416.312 110.608 416.312 128.64C 416.296 146.656 401.688 161.28 383.672 161.28Z M 383.672 103.672C 369.872 103.672 358.72 114.84 358.72 128.64C 358.72 142.424 369.888 153.592 383.672 153.592C 397.456 153.592 408.624 142.424 408.624 128.64C 408.624 114.848 397.456 103.672 383.672 103.672Z M 117.944 161.28C 99.92 161.28 85.304 146.672 85.304 128.64S 99.92 96.0 117.944 96.0C 135.96 96.0 150.592 110.608 150.592 128.64C 150.576 146.656 135.96 161.28 117.944 161.28Z M 117.944 103.672C 104.152 103.672 92.992 114.84 92.992 128.64C 92.992 142.424 104.16 153.592 117.944 153.592C 131.728 153.592 142.904 142.424 142.904 128.64C 142.904 114.848 131.728 103.672 117.944 103.672Z " />
			<glyph glyph-name="bodystyle-sedan" unicode="&#xe61d;" d="M 392.648 161.28C 374.616 161.28 360.008 146.672 360.008 128.64C 360.008 110.624 374.616 96.0 392.648 96.0S 425.272 110.624 425.272 128.64C 425.272 146.672 410.68 161.28 392.648 161.28Z M 392.648 103.672C 378.856 103.672 367.696 114.84 367.696 128.64C 367.696 142.424 378.864 153.592 392.648 153.592C 406.432 153.592 417.6 142.424 417.6 128.64C 417.6 114.848 406.424 103.672 392.648 103.672Z M 136.768 161.28C 118.744 161.28 104.128 146.672 104.128 128.64C 104.128 110.624 118.744 96.0 136.768 96.0C 154.792 96.0 169.4 110.624 169.4 128.64C 169.392 146.672 154.792 161.28 136.768 161.28Z M 136.768 103.672C 122.984 103.672 111.808 114.84 111.808 128.64C 111.808 142.424 122.984 153.592 136.768 153.592C 150.56 153.592 161.72 142.424 161.72 128.64C 161.712 114.848 150.552 103.672 136.768 103.672Z M 124.392 203.888M 464.224 164.656C 463.04 166.344 457.392 170.296 457.392 170.296L 458.104 188.88C 455.936 195.48 449.704 195.84 449.704 195.84L 421.16 199.432C 358.392 225.6 327.792 227.4 327.792 227.4S 253.752 230.752 224.6 222.24C 195.432 213.728 155.888 189.12 155.888 189.12C 69.08 184.648 54.208 167.936 54.208 167.936L 59.576 167.296L 52.048 162.016C 50.536 161.608 49.968 160.248 49.968 160.248L 47.328 141.888C 47.328 141.888 46.776 135.528 47.328 134.848C 47.888 134.168 49.52 133.448 49.52 133.448L 50.408 126.848C 50.408 126.848 48.216 126.048 48.368 124.808C 48.52 123.576 53.68 119.4 56.28 118.248C 58.88 117.096 99.32 113.936 99.32 113.936L 101.272 114.0C 99.408 118.496 98.368 123.456 98.368 128.64C 98.368 149.832 115.56 167.048 136.768 167.048C 157.976 167.048 175.168 149.848 175.168 128.64C 175.168 124.184 174.376 119.936 172.992 115.968L 355.016 121.0C 354.52 123.472 354.248 126.016 354.248 128.64C 354.248 149.832 371.44 167.048 392.656 167.048C 413.856 167.048 431.064 149.848 431.064 128.64C 431.064 128.16 431.0 127.712 430.968 127.232L 454.776 129.264C 454.776 129.264 463.168 138.016 464.0 141.016C 464.832 144.016 465.432 162.984 464.224 164.656Z M 76.168 155.296C 71.48 153.488 59.968 152.888 59.968 152.888S 56.84 171.608 91.28 173.656C 91.28 173.656 95.96 172.936 98.12 169.824C 98.128 169.824 80.84 157.096 76.168 155.296Z M 273.168 176.136L 255.912 175.272C 254.84 175.216 253.952 176.04 253.896 177.096C 253.848 178.168 254.664 179.064 255.72 179.112L 272.984 179.976C 274.048 180.024 274.936 179.208 275.0 178.152C 275.04 177.088 274.224 176.184 273.168 176.136Z M 273.44 191.4C 273.44 191.4 175.488 186.416 172.768 186.416C 188.76 197.128 222.208 223.528 276.272 221.848L 273.44 191.4Z M 367.232 178.032L 349.992 177.192C 348.928 177.144 348.024 177.976 347.976 179.024C 347.912 180.096 348.744 180.992 349.808 181.04L 367.056 181.872C 368.128 181.928 369.024 181.104 369.072 180.048C 369.12 178.984 368.304 178.096 367.232 178.032Z M 289.632 192.168L 286.32 221.896C 338.256 221.48 348.896 217.216 353.24 215.04C 357.728 212.808 369.4 199.048 369.232 195.992L 289.632 192.168Z M 453.728 173.656L 440.992 173.848L 437.632 184.56L 454.384 184.488L 453.728 173.656Z " />
			<glyph glyph-name="bodystyle-suv" unicode="&#xe61e;" d="M 129.592 172.168C 108.552 172.168 91.504 155.104 91.504 134.08C 91.504 113.04 108.552 95.992 129.592 95.992C 150.616 95.992 167.672 113.04 167.672 134.08C 167.68 155.12 150.624 172.168 129.592 172.168Z M 129.592 107.08C 114.68 107.08 102.576 119.176 102.576 134.088S 114.68 161.104 129.592 161.104C 144.504 161.104 156.592 149.0 156.592 134.088C 156.6 119.168 144.512 107.08 129.592 107.08Z M 400.408 172.168C 379.376 172.168 362.312 155.104 362.312 134.08C 362.312 113.04 379.376 95.992 400.408 95.992S 438.504 113.04 438.504 134.08C 438.496 155.12 421.44 172.168 400.408 172.168Z M 400.408 107.08C 385.496 107.08 373.408 119.176 373.408 134.088S 385.496 161.104 400.408 161.104C 415.328 161.104 427.432 149.0 427.432 134.088C 427.432 119.168 415.328 107.08 400.408 107.08Z M 475.656 167.296C 475.656 167.296 476.792 182.448 475.528 185.424C 474.28 188.392 469.44 193.344 469.44 193.344C 469.168 242.288 423.424 260.136 423.424 260.136C 378.056 269.928 292.24 271.512 254.152 267.664C 216.064 263.832 136.592 216.632 136.592 216.632S 66.768 210.144 55.656 202.216C 44.552 194.288 40.056 173.392 40.056 173.392L 35.296 167.688L 34.368 154.2C 40.304 138.368 81.36 124.4 86.68 122.64C 85.712 126.296 85.144 130.136 85.144 134.088C 85.144 158.608 105.032 178.52 129.576 178.52C 154.112 178.52 174.0 158.632 174.0 134.088C 174.0 130.504 173.528 127.032 172.736 123.712L 352.648 126.296L 356.4 126.672C 356.008 129.096 355.744 131.544 355.744 134.088C 355.744 158.608 375.632 178.52 400.184 178.52C 424.232 178.52 443.768 159.392 444.544 135.544L 444.84 135.568C 489.28 141.512 475.656 167.296 475.656 167.296Z M 48.296 180.816C 48.296 180.816 48.64 187.864 55.176 195.096C 55.176 195.096 76.328 204.088 105.416 206.552C 105.416 206.544 84.968 183.984 48.296 180.816Z M 165.72 216.248C 165.72 216.248 221.96 256.448 256.52 259.088C 264.688 259.704 276.016 260.128 288.92 260.28L 284.176 215.536C 225.24 212.904 166.168 211.56 165.72 216.248Z M 287.2 201.792L 268.16 201.792C 266.992 201.792 266.048 202.736 266.048 203.912S 266.984 206.024 268.16 206.024L 287.2 206.024C 288.368 206.024 289.328 205.088 289.328 203.912S 288.376 201.792 287.2 201.792Z M 300.136 216.28L 301.704 260.352C 320.656 260.296 341.784 259.688 361.168 258.296L 372.872 220.32C 353.888 219.136 327.624 217.624 300.136 216.28Z M 384.592 208.264L 365.56 207.624C 364.392 207.592 363.4 208.496 363.376 209.656C 363.344 210.832 364.24 211.824 365.432 211.848L 384.464 212.488C 385.632 212.52 386.616 211.624 386.64 210.44S 385.752 208.312 384.592 208.264Z M 401.64 222.424C 400.344 222.248 395.64 221.856 388.392 221.36L 369.984 257.608C 388.016 256.024 403.88 253.712 414.152 250.456C 446.952 240.056 411.856 223.832 401.64 222.424Z M 447.096 205.624L 441.656 210.656L 454.08 228.768C 462.28 219.912 464.544 205.624 464.544 205.624L 447.096 205.624Z " />
			<glyph glyph-name="bodystyle-truck" unicode="&#xe61f;" d="M 105.072 168.344C 85.088 168.344 68.896 152.16 68.896 132.176C 68.896 112.2 85.088 96.008 105.072 96.008C 125.04 96.008 141.232 112.2 141.232 132.176C 141.232 152.16 125.04 168.344 105.072 168.344Z M 105.072 108.528C 92.008 108.528 81.432 119.112 81.432 132.168C 81.432 145.232 92.008 155.808 105.072 155.808C 118.12 155.808 128.704 145.232 128.704 132.168C 128.704 119.12 118.128 108.528 105.072 108.528Z M 388.672 168.344C 368.688 168.344 352.504 152.16 352.504 132.176C 352.504 112.2 368.688 96.008 388.672 96.008C 408.64 96.008 424.84 112.2 424.84 132.176C 424.832 152.16 408.64 168.344 388.672 168.344Z M 388.672 108.528C 375.608 108.528 365.016 119.112 365.016 132.168C 365.016 145.232 375.608 155.808 388.672 155.808C 401.72 155.808 412.312 145.232 412.312 132.168C 412.312 119.12 401.704 108.528 388.672 108.528Z M 486.096 170.128C 486.096 173.392 484.528 175.656 484.528 175.656L 477.576 175.656C 486.192 195.656 475.552 212.408 475.552 212.408L 309.504 212.408C 309.504 212.408 304.096 242.512 302.464 250.008C 300.856 257.496 299.472 258.208 260.712 258.208C 216.744 258.208 208.208 254.944 199.328 251.176C 190.456 247.408 144.992 215.176 144.992 215.176S 65.36 210.144 48.112 206.032C 30.864 201.936 30.608 190.384 30.608 190.384L 30.064 177.752C 30.064 177.752 27.264 175.4 26.296 173.344C 25.328 171.28 26.296 161.792 26.296 152.496C 26.296 143.208 33.328 139.32 33.328 139.32L 62.904 133.144C 63.408 155.992 82.072 174.384 105.064 174.384C 128.112 174.384 146.824 155.888 147.224 132.912L 344.072 133.88L 346.552 134.112C 347.576 156.504 366.0 174.36 388.656 174.36C 408.512 174.36 425.144 160.624 429.608 142.136L 464.48 145.504C 487.952 145.504 486.096 166.856 486.096 170.128Z M 35.72 180.168C 35.72 180.168 34.384 190.376 40.12 195.656C 45.856 200.936 62.848 200.848 62.848 200.848S 58.84 180.168 35.72 180.168Z M 252.752 199.344L 238.688 199.344C 237.576 199.344 236.68 200.248 236.68 201.344C 236.68 202.456 237.584 203.344 238.688 203.344L 252.752 203.344C 253.864 203.344 254.76 202.456 254.76 201.344C 254.776 200.248 253.864 199.344 252.752 199.344Z M 254.176 215.592C 254.176 215.592 254.336 211.576 249.816 211.576S 169.272 211.576 169.272 211.576S 165.0 212.408 167.68 215.176C 167.68 215.176 193.56 241.208 208.2 246.32C 222.864 251.432 252.744 251.256 252.744 251.256S 255.92 250.92 256.096 248.16C 256.28 245.392 254.176 215.592 254.176 215.592Z M 293.808 213.344L 268.912 213.16C 266.712 213.16 264.896 214.96 264.896 217.176L 264.896 247.312C 264.896 249.536 266.712 251.336 268.912 251.336L 291.16 251.264C 293.36 251.264 295.176 249.472 295.176 247.248L 297.824 217.344C 297.824 215.144 296.016 213.344 293.808 213.344Z M 473.456 175.152L 466.0 175.152L 474.936 203.96C 481.064 195.08 473.456 175.152 473.456 175.152Z " />
			<glyph glyph-name="bodystyle-van" unicode="&#xe620;" d="M 383.36 162.92C 364.872 162.92 349.888 147.952 349.888 129.456S 364.872 96.0 383.36 96.0S 416.84 110.968 416.84 129.464S 401.84 162.92 383.36 162.92Z M 383.36 103.864C 369.224 103.864 357.784 115.328 357.784 129.456S 369.24 155.048 383.36 155.048C 397.512 155.048 408.952 143.584 408.952 129.456S 397.504 103.864 383.36 103.864Z M 140.008 162.92C 121.512 162.92 106.536 147.952 106.536 129.456S 121.528 96.0 140.008 96.0S 173.472 110.968 173.472 129.464S 158.496 162.92 140.008 162.92Z M 140.008 103.864C 125.864 103.864 114.408 115.328 114.408 129.456S 125.864 155.048 140.008 155.048C 154.136 155.048 165.592 143.584 165.592 129.456S 154.144 103.864 140.008 103.864Z M 462.656 165.528C 461.536 168.0 455.776 176.728 455.776 176.728S 456.64 194.192 453.672 199.6C 450.72 205.024 422.792 250.976 422.792 250.976C 434.856 256.272 427.472 257.376 427.472 257.376C 357.984 262.216 300.488 265.024 247.656 262.872C 191.232 260.568 132.448 215.96 132.448 215.96S 88.872 205.96 70.912 197.464C 52.952 188.976 47.672 146.32 48.52 145.104C 49.36 143.904 52.576 142.608 52.576 142.608L 52.216 131.096C 52.216 131.096 50.496 130.152 50.496 128.672C 50.496 127.184 60.336 122.776 60.336 122.776L 99.712 121.464L 101.456 121.48C 100.928 124.064 100.64 126.736 100.64 129.48C 100.64 151.24 118.272 168.856 140.016 168.856C 161.752 168.856 179.384 151.24 179.384 129.48C 179.384 126.96 179.12 124.496 178.672 122.104L 344.488 123.6C 344.192 125.52 343.992 127.48 343.992 129.488C 343.992 151.24 361.632 168.856 383.368 168.856C 405.112 168.856 422.728 151.24 422.728 129.488C 422.728 129.08 422.696 128.688 422.68 128.304C 442.584 129.8 452.416 131.144 453.416 131.48C 455.864 132.288 461.304 134.552 462.648 137.632C 464.0 140.672 463.752 163.08 462.656 165.528Z M 63.288 174.104C 63.288 174.104 64.888 183.816 70.176 188.36C 75.464 192.92 113.608 199.312 113.608 199.312S 97.352 168.44 63.288 174.104Z M 148.328 204.512C 145.328 205.328 143.48 208.52 147.64 212.12C 151.784 215.68 194.136 250.96 247.312 253.256L 247.312 208.992C 192.416 206.376 149.624 204.168 148.328 204.512Z M 242.824 190.848L 227.072 190.848C 225.992 190.848 225.104 191.728 225.104 192.808C 225.104 193.904 225.992 194.784 227.072 194.784L 242.824 194.784C 243.912 194.784 244.8 193.904 244.8 192.808C 244.792 191.744 243.904 190.848 242.824 190.848Z M 281.536 190.848L 265.784 190.848C 264.696 190.848 263.816 191.728 263.816 192.808C 263.816 193.904 264.696 194.784 265.784 194.784L 281.536 194.784C 282.624 194.784 283.504 193.904 283.504 192.808C 283.504 191.744 282.624 190.848 281.536 190.848Z M 261.656 209.688L 260.344 253.192C 281.128 253.08 307.896 252.88 331.456 252.696L 334.688 213.2C 312.016 212.12 286.496 210.88 261.656 209.688Z M 408.672 216.624C 406.104 216.624 381.872 215.48 349.032 213.904L 343.312 252.608C 368.032 252.416 402.24 250.44 414.656 221.696C 414.656 221.688 417.312 216.624 408.672 216.624Z M 451.984 179.44L 437.912 179.44L 447.144 197.528L 450.608 197.536C 453.672 190.0 451.984 179.44 451.984 179.44Z " />
			<glyph glyph-name="bodystyle-wagon" unicode="&#xe621;" d="M 384.72 161.264C 366.704 161.264 352.096 146.656 352.096 128.64C 352.096 110.608 366.704 96.0 384.72 96.0C 402.752 96.0 417.36 110.608 417.36 128.64C 417.36 146.656 402.752 161.264 384.72 161.264Z M 384.72 103.672C 370.936 103.672 359.768 114.84 359.768 128.624C 359.768 142.416 370.936 153.592 384.72 153.592S 409.688 142.416 409.688 128.624C 409.688 114.848 398.496 103.672 384.72 103.672Z M 131.304 161.264C 113.28 161.264 98.664 146.656 98.664 128.64C 98.664 110.608 113.272 96.0 131.304 96.0S 163.944 110.608 163.944 128.64C 163.936 146.656 149.336 161.264 131.304 161.264Z M 131.304 103.672C 117.52 103.672 106.344 114.84 106.344 128.624C 106.344 142.416 117.52 153.592 131.304 153.592C 145.096 153.592 156.272 142.416 156.272 128.624C 156.272 114.84 145.088 103.672 131.304 103.672Z M 469.688 162.848L 463.328 171.48L 462.968 194.04C 459.0 207.84 422.52 233.04 422.52 233.04C 427.328 237.608 422.52 237.84 422.52 237.84L 406.792 238.92C 382.072 250.56 317.288 249.248 283.936 247.92C 250.576 246.592 240.136 240.112 240.136 240.112C 206.016 232.624 166.976 201.112 166.976 201.112C 35.944 188.496 45.624 156.608 45.624 156.608S 43.704 155.776 42.392 154.096C 41.064 152.416 41.672 142.824 42.392 141.384C 43.104 139.936 44.904 140.064 44.904 140.064L 44.744 127.864C 39.944 121.96 46.824 120.272 50.824 118.912C 53.816 117.888 81.488 116.256 95.264 115.48C 93.76 119.6 92.896 124.0 92.896 128.648C 92.896 149.856 110.088 167.04 131.296 167.04C 152.504 167.04 169.696 149.872 169.696 128.648C 169.696 124.464 169.0 120.44 167.76 116.648L 347.08 121.064C 346.584 123.512 346.328 126.04 346.328 128.648C 346.328 149.856 363.512 167.04 384.72 167.04C 405.936 167.04 423.144 149.872 423.144 128.648C 423.144 127.944 423.048 127.24 423.016 126.536L 458.872 134.184C 468.112 137.184 470.384 145.944 470.384 145.944L 469.688 162.848Z M 50.968 156.624C 50.968 156.624 48.616 171.856 79.936 178.432C 111.264 184.984 86.872 156.624 50.968 156.624Z M 280.096 245.2C 298.624 246.152 366.488 248.32 387.608 239.528C 387.608 239.528 314.104 243.688 257.696 240.488C 257.704 240.488 261.376 244.248 280.096 245.2Z M 273.376 181.456L 258.0 181.456C 256.952 181.456 256.096 182.312 256.096 183.376C 256.096 184.432 256.952 185.296 258.0 185.296L 273.368 185.296C 274.424 185.296 275.288 184.432 275.288 183.376C 275.296 182.312 274.432 181.456 273.376 181.456Z M 274.808 197.536C 227.008 194.712 184.264 192.016 184.264 192.016S 175.624 191.056 181.704 197.296C 181.704 197.296 211.936 232.16 258.024 234.408C 265.08 234.752 272.928 235.12 281.208 235.464L 274.808 197.536Z M 357.848 181.456L 342.48 181.456C 341.424 181.456 340.576 182.312 340.576 183.376C 340.576 184.432 341.424 185.296 342.48 185.296L 357.848 185.296C 358.912 185.296 359.76 184.432 359.76 183.376C 359.768 182.312 358.896 181.456 357.848 181.456Z M 293.608 198.64L 294.408 235.976C 313.656 236.664 334.208 237.096 352.376 236.736L 371.64 202.856C 350.672 201.864 322.12 200.296 293.608 198.64Z M 400.408 203.84C 396.28 203.84 389.064 203.608 379.688 203.208L 360.216 236.52C 379.376 235.848 395.016 234.112 402.152 230.568C 421.2 221.128 429.704 203.84 400.408 203.84Z M 459.184 172.112L 433.312 172.112C 433.312 172.112 445.808 193.776 459.184 193.776L 459.184 172.112Z " />
			<glyph glyph-name="brakes" unicode="&#xe622;" d="M 256.0 416.0C 221.008 416.0 188.232 406.592 159.976 390.24L 160.0 402.296L 126.296 402.296L 123.928 400.528C 67.656 358.368 35.384 294.024 35.384 224.0C 35.384 153.968 67.664 89.624 123.936 47.488L 126.304 45.704L 160.0 45.704L 160.0 57.752C 188.248 41.408 221.016 32.0 256.0 32.0C 362.04 32.0 448.0 117.96 448.0 224.0S 362.04 416.0 256.0 416.0Z M 256.0 56.0C 220.28 56.0 187.224 67.232 160.0 86.24L 160.0 144.168L 155.376 168.496L 154.528 170.92C 145.832 187.496 141.432 205.36 141.432 224.008S 145.832 260.512 154.528 277.088L 159.816 300.92L 159.928 361.704C 187.168 380.744 220.248 392.0 256.0 392.0C 348.768 392.0 424.0 316.768 424.0 224.0C 424.0 131.2 348.768 56.0 256.0 56.0Z M 256.0 304.0C 211.816 304.0 176.0 268.184 176.0 224.0C 176.0 179.816 211.816 144.0 256.0 144.0C 300.184 144.0 336.0 179.816 336.0 224.0C 336.0 268.184 300.184 304.0 256.0 304.0Z M 256.0 292.312C 262.624 292.312 268.0 286.944 268.0 280.312S 262.624 268.312 256.0 268.312S 244.0 273.68 244.0 280.312S 249.376 292.312 256.0 292.312Z M 200.36 212.672C 193.736 212.672 188.36 218.04 188.36 224.672C 188.36 231.296 193.736 236.672 200.36 236.672C 206.992 236.672 212.36 231.296 212.36 224.672C 212.36 218.04 206.992 212.672 200.36 212.672Z M 256.0 157.032C 249.376 157.032 244.0 162.408 244.0 169.032S 249.376 181.032 256.0 181.032S 268.0 175.656 268.0 169.032S 262.624 157.032 256.0 157.032Z M 256.0 192.0C 238.328 192.0 224.0 206.328 224.0 224.0S 238.328 256.0 256.0 256.0S 288.0 241.672 288.0 224.0S 273.672 192.0 256.0 192.0Z M 323.64 224.672C 323.64 218.04 318.264 212.672 311.64 212.672C 305.008 212.672 299.64 218.04 299.64 224.672C 299.64 231.296 305.008 236.672 311.64 236.672C 318.264 236.672 323.64 231.296 323.64 224.672Z " />
			<glyph glyph-name="bubble" unicode="&#xe623;" d="M 256.0 448.0C 397.392 448.0 512.0 354.88 512.0 240.0S 397.392 32.0 256.0 32.0C 242.416 32.0 229.088 32.864 216.08 34.528C 161.088 -20.464 95.456 -30.32 32.0 -31.776V -18.32C 66.272 -1.536 96.0 29.056 96.0 64.0C 96.0 68.88 95.616 73.664 94.912 78.352C 37.008 116.48 -2.84217094304e-14 174.736 -2.84217094304e-14 240.0C -2.84217094304e-14 354.88 114.608 448.0 256.0 448.0Z " />
			<glyph glyph-name="calculator" unicode="&#xe624;" d="M 176.0 272.0H 208.0V 240.0H 176.0V 272.0Z M 240.0 272.0H 272.0V 240.0H 240.0V 272.0Z M 304.0 272.0H 336.0V 240.0H 304.0V 272.0Z M 176.0 208.0H 208.0V 176.0H 176.0V 208.0Z M 240.0 208.0H 272.0V 176.0H 240.0V 208.0Z M 304.0 208.0H 336.0V 176.0H 304.0V 208.0Z M 176.0 144.0H 208.0V 112.0H 176.0V 144.0Z M 240.0 144.0H 272.0V 112.0H 240.0V 144.0Z M 304.0 144.0H 336.0V 112.0H 304.0V 144.0Z M 176.0 336.0H 336.0V 304.0H 176.0V 336.0Z M 400.0 48.0H 112.0V 400.0H 400.0V 48.0Z M 144.0 80.0H 368.0V 368.0H 144.0V 80.0Z " />
			<glyph glyph-name="call" unicode="&#xe625;" d="M 368.0 176.0C 336.0 144.0 336.0 112.0 304.0 112.0S 240.0 144.0 208.0 176.0S 144.0 240.0 144.0 272.0S 176.0 304.0 208.0 336.0S 144.0 464.0 112.0 464.0S 16.0 368.0 16.0 368.0C 16.0 304.0 81.744 174.256 144.0 112.0S 336.0 -16.0 400.0 -16.0C 400.0 -16.0 496.0 48.0 496.0 80.0S 400.0 208.0 368.0 176.0Z " />
			<glyph glyph-name="cancel-circle" unicode="&#xe626;" d="M 256.0 -32.0Q 204.0 -32.0 156.499428571 -11.7497142857T 74.7497142857 42.7508571429T 20.2491428571 124.500571429T -0.00114285714285 224.001142857T 20.2491428571 323.501714286T 74.7497142857 405.251428571T 156.499428571 459.752T 256.0 480.002285714T 355.500571429 459.752T 437.250285714 405.251428571T 491.750857143 323.501714286T 512.001142857 224.001142857T 491.750857143 124.500571429T 437.250285714 42.7508571429T 355.500571429 -11.7497142857T 256.0 -32.0Z M 379.250285714 347.250285714Q 374.0 352.500571429 366.500571429 352.500571429T 354.0 347.500571429L 256.0 249.500571429L 158.499428571 347.001142857Q 153.499428571 352.001142857 145.998857143 352.001142857T 133.249142857 346.750857143T 127.998857143 334.250285714T 133.499428571 321.500571429L 230.499428571 224.0L 133.499428571 127.0Q 127.998857143 121.499428571 127.998857143 114.0T 133.249142857 101.250285714T 145.998857143 96.0T 158.998857143 101.500571429L 255.998857143 198.500571429L 353.499428571 101.500571429Q 358.499428571 96.0 366.0 96.0T 378.749714286 101.250285714T 384.0 114.0T 378.499428571 126.500571429L 281.499428571 224.001142857L 379.0 322.001142857Q 384.500571429 327.001142857 384.500571429 334.501714286T 379.250285714 347.251428571Z " />
			<glyph glyph-name="cd-player" unicode="&#xe627;" d="M 455.92 346.56L 455.92 346.56H 56.08C 45.76 346.56 37.44 338.24 37.44 327.92V 248.4C 37.44 238.08 45.76 229.76 56.08 229.76H 116.16C 130.24 164.56 187.52 117.44 256.0 117.44C 324.48 117.44 381.76 164.56 395.84 229.76H 455.92C 466.24 229.76 474.56 238.08 474.56 248.4V 327.92C 474.56 338.16 466.24 346.56 455.92 346.56Z M 284.64 265.36C 284.64 253.52 271.84 236.72 256.0 236.72C 240.16 236.72 227.36 253.52 227.36 265.36H 284.64Z M 208.56 265.36C 208.56 241.68 229.76 217.92 256.0 217.92C 282.16 217.92 303.44 241.6 303.44 265.36H 307.84C 307.84 241.68 284.64 213.52 256.0 213.52C 227.44 213.52 204.16 241.68 204.16 265.36H 208.56Z M 256.0 133.52C 184.96 133.52 127.36 189.84 127.36 260.96C 127.36 262.88 127.44 265.44 127.52 265.44H 192.32C 192.32 229.92 220.88 201.76 256.0 201.76C 291.12 201.76 319.68 229.92 319.68 265.44H 384.48C 384.64 265.44 384.64 262.88 384.64 260.96C 384.64 189.84 327.04 133.52 256.0 133.52Z M 429.84 332.96H 437.84V 300.96H 429.84V 332.96Z M 433.84 267.84C 418.4 267.84 405.84 280.4 405.84 295.84C 405.84 306.96 412.4 316.48 421.84 321.04V 311.76C 417.04 308.08 413.84 302.4 413.84 295.84C 413.84 284.8 422.8 275.84 433.84 275.84S 453.84 284.8 453.84 295.84C 453.84 302.4 450.64 308.08 445.84 311.76V 321.04C 455.28 316.56 461.84 306.96 461.84 295.84C 461.84 280.4 449.28 267.84 433.84 267.84Z " />
			<glyph glyph-name="checkmark" unicode="&#xe628;" d="M 432.0 416.0L 192.0 176.0L 80.0 288.0L 0.0 208.0L 192.0 16.0L 512.0 336.0Z " />
			<glyph glyph-name="checkmark-circle" unicode="&#xe629;" d="M 256.0 480.0C 114.608 480.0 0.0 365.392 0.0 224.0S 114.608 -32.0 256.0 -32.0S 512.0 82.608 512.0 224.0S 397.392 480.0 256.0 480.0Z M 208.0 64.0L 102.0 202.0L 149.008 251.008L 208.016 176.0L 393.024 327.008L 416.032 304.0L 208.032 64.0Z " />
			<glyph glyph-name="checkmark-empty" unicode="&#xe62a;" d="M 194.976 14.448L 1.056 208.368L 88.144 295.456L 194.976 188.64L 423.84 417.536L 510.944 330.448L 194.976 14.448Z M 22.64 208.368L 194.976 36.032L 489.36 330.432L 423.84 395.968L 194.976 167.04L 88.144 273.872L 22.64 208.368Z " />
			<glyph glyph-name="chevron-down" unicode="&#xe62b;" d="M 432.0 339.744L 256.512 207.36L 80.0 339.744V 243.744L 257.024 108.256L 432.0 243.744Z " />
			<glyph glyph-name="chevron-left" unicode="&#xe62c;" d="M 371.744 48.0L 239.36 223.488L 371.744 400.0H 275.744L 140.256 222.976L 275.744 48.0Z " />
			<glyph glyph-name="chevron-right" unicode="&#xe62d;" d="M 140.256 400.0L 272.64 224.512L 140.256 48.0H 236.256L 371.744 225.024L 236.256 400.0Z " />
			<glyph glyph-name="chevron-right-after" unicode="&#xe62e;" d="M 140.256 400.0L 272.64 224.512L 140.256 48.0H 236.256L 371.744 225.024L 236.256 400.0Z " />
			<glyph glyph-name="circle-check" unicode="&#xe62f;" d="M 449.696 173.152C 449.696 120.016 430.688 74.432 392.688 36.432C 354.688 -1.584 309.12 -20.576 256.016 -20.576C 202.208 -20.576 156.464 -1.568 118.8 36.432C 81.136 74.432 62.288 120.016 62.288 173.152C 62.288 226.976 81.12 272.72 118.8 310.384C 156.464 348.048 202.192 366.88 256.0 366.88C 309.12 366.88 354.672 348.048 392.672 310.384C 430.704 272.72 449.696 226.976 449.696 173.152Z M 346.8 278.096C 344.784 280.768 342.432 280.768 339.728 278.096L 223.728 158.016C 221.04 155.328 218.352 155.328 215.664 158.016L 172.272 203.44C 169.584 206.128 166.896 206.128 164.208 203.44L 128.88 166.08C 126.192 163.392 126.192 160.704 128.88 158.016L 171.248 113.616L 179.312 105.552L 215.648 68.224C 218.32 65.52 221.024 65.52 223.712 68.224L 383.12 233.712C 385.792 236.4 385.792 239.088 383.12 241.776L 346.8 278.096Z " />
			<glyph glyph-name="clock" unicode="&#xe630;" d="M 256.0 477.52C 115.984 477.52 2.464 363.984 2.464 224.0C 2.464 83.984 115.984 -29.536 256.0 -29.536S 509.536 83.984 509.536 224.0S 396.016 477.52 256.0 477.52Z M 256.0 25.616C 146.4 25.616 57.6 114.432 57.6 224.0S 146.4 422.4 256.0 422.4S 454.384 333.568 454.384 224.0C 454.384 114.432 365.6 25.616 256.0 25.616Z M 275.296 367.296H 236.704V 216.0L 330.544 122.16L 357.824 149.44L 275.296 232.0V 367.296Z " />
			<glyph glyph-name="close" unicode="&#xe631;" d="M 256.0 -32.0Q 204.0 -32.0 156.499428571 -11.7497142857T 74.7497142857 42.7508571429T 20.2491428571 124.500571429T -0.00114285714285 224.001142857T 20.2491428571 323.501714286T 74.7497142857 405.251428571T 156.499428571 459.752T 256.0 480.002285714T 355.500571429 459.752T 437.250285714 405.251428571T 491.750857143 323.501714286T 512.001142857 224.001142857T 491.750857143 124.500571429T 437.250285714 42.7508571429T 355.500571429 -11.7497142857T 256.0 -32.0Z M 379.250285714 347.250285714Q 374.0 352.500571429 366.500571429 352.500571429T 354.0 347.500571429L 256.0 249.500571429L 158.499428571 347.001142857Q 153.499428571 352.001142857 145.998857143 352.001142857T 133.249142857 346.750857143T 127.998857143 334.250285714T 133.499428571 321.500571429L 230.499428571 224.0L 133.499428571 127.0Q 127.998857143 121.499428571 127.998857143 114.0T 133.249142857 101.250285714T 145.998857143 96.0T 158.998857143 101.500571429L 255.998857143 198.500571429L 353.499428571 101.500571429Q 358.499428571 96.0 366.0 96.0T 378.749714286 101.250285714T 384.0 114.0T 378.499428571 126.500571429L 281.499428571 224.001142857L 379.0 322.001142857Q 384.500571429 327.001142857 384.500571429 334.501714286T 379.250285714 347.251428571Z " />
			<glyph glyph-name="collapse-circle" unicode="&#xe632;" d="M 153.152 184.592H 358.88V 161.712H 153.152V 184.592Z " />
			<glyph glyph-name="dimensions" unicode="&#xe633;" d="M 435.36 316.168L 163.824 44.64L 84.648 123.824L 356.168 395.36L 435.36 316.168Z M 356.168 372.736L 107.256 123.832L 163.816 67.288L 412.72 316.168L 356.168 372.736Z M 378.8 338.8C 388.176 329.416 388.176 314.24 378.8 304.848C 369.424 295.472 354.24 295.472 344.864 304.848S 335.488 329.416 344.864 338.8C 354.232 348.168 369.424 348.168 378.8 338.8Z M 353.328 330.312C 348.656 325.624 348.656 318.024 353.344 313.336S 365.624 308.648 370.312 313.336S 375.0 325.624 370.312 330.312S 358.016 335.0 353.328 330.312Z M 112.912 129.504L 124.224 140.816L 141.2 123.848L 129.88 112.536Z M 135.552 152.112L 146.864 163.44L 163.848 146.472L 152.536 135.152Z M 158.184 174.744L 169.504 186.056L 203.432 152.096L 192.12 140.792Z M 180.744 197.392L 192.064 208.704L 209.04 191.736L 197.72 180.424Z M 203.456 220.0L 214.776 231.312L 231.736 214.328L 220.424 203.024Z M 226.056 242.624L 237.376 253.936L 271.312 220.008L 259.992 208.688Z M 248.632 265.256L 259.952 276.568L 276.928 259.592L 265.616 248.272Z M 271.304 287.88L 282.624 299.192L 299.592 282.224L 288.28 270.912Z M 293.936 310.504L 305.248 321.824L 339.192 287.872L 327.88 276.56Z " />
			<glyph glyph-name="dimensions-exterior" unicode="&#xe634;" d="M 124.0 84.0L 140.0 84.0L 140.0 52.0L 124.0 52.0Z M 380.0 84.0L 396.0 84.0L 396.0 52.0L 380.0 52.0Z M 124.0 52.0L 396.0 52.0L 396.0 36.0L 124.0 36.0Z M 412.0 116.0L 444.0 116.0L 444.0 100.0L 412.0 100.0Z M 412.0 348.0L 444.0 348.0L 444.0 332.0L 412.0 332.0Z M 444.0 348.0L 460.0 348.0L 460.0 100.0L 444.0 100.0Z M 404.0 268.0L 377.408 268.0L 364.0 324.0C 361.6 335.944 352.168 348.0 340.0 348.0L 260.0 348.0L 180.0 348.0C 167.832 348.0 158.4 335.944 156.0 324.0L 142.592 268.0L 116.0 268.0L 116.0 252.0L 132.0 252.0L 124.0 236.032L 124.0 213.872L 124.0 197.256L 124.0 158.48L 124.0 147.384L 124.0 100.0L 155.688 100.0L 155.688 124.168L 260.0 124.168L 364.312 124.168L 364.312 100.0L 396.0 100.0L 396.0 147.408L 396.0 158.488L 396.0 197.28L 396.0 213.88L 396.0 236.048L 388.0 252.016L 404.0 252.016L 404.0 268.0Z M 180.0 324.0C 180.0 324.0 180.0 332.0 188.0 332.0L 260.0 332.0L 332.0 332.0C 340.0 332.0 340.0 324.0 340.0 324.0L 356.0 268.0L 260.0 268.0L 164.0 268.0L 180.0 324.0Z M 180.0 188.0L 156.0 188.0L 140.0 204.0L 140.0 228.0L 180.0 212.0L 180.0 188.0Z M 308.0 148.0L 260.0 148.0L 212.0 148.0L 212.0 172.0L 260.0 172.0L 308.0 172.0L 308.0 148.0Z M 380.0 204.0L 364.0 188.0L 340.0 188.0L 340.0 212.0L 380.0 228.0L 380.0 204.0Z " />
			<glyph glyph-name="dimensions-interior" unicode="&#xe635;" d="M 130.56 209.784C 17.584 228.616 66.56 161.784 66.56 161.784S 86.168 134.176 106.56 113.784C 114.56 105.784 130.56 97.784 130.56 97.784L 338.56 97.784L 290.56 161.784C 290.56 161.784 226.56 193.784 130.56 209.784Z M 386.56 425.784C 374.56 437.784 354.56 433.784 346.56 401.784L 298.56 185.784L 338.56 129.784L 386.56 369.784C 386.56 369.784 398.56 413.784 386.56 425.784Z M 56.0 64.0L 72.0 64.0L 72.0 32.0L 56.0 32.0Z M 336.0 64.0L 352.0 64.0L 352.0 32.0L 336.0 32.0Z M 56.0 32.0L 352.0 32.0L 352.0 16.0L 56.0 16.0Z M 408.0 112.0L 440.0 112.0L 440.0 96.0L 408.0 96.0Z M 408.0 432.0L 440.0 432.0L 440.0 416.0L 408.0 416.0Z M 440.0 432.0L 456.0 432.0L 456.0 96.0L 440.0 96.0Z " />
			<glyph glyph-name="distance-pacing-cruise-control" unicode="&#xe636;" d="M 344.56 278.32C 295.68 327.2 216.24 327.2 167.36 278.32L 177.84 267.92C 220.96 311.04 291.04 311.04 334.16 267.92L 344.56 278.32Z M 318.48 252.24C 284.0 286.72 227.92 286.72 193.44 252.24L 203.84 241.84C 232.56 270.56 279.36 270.56 308.08 241.84L 318.48 252.24Z M 230.0 215.84C 236.96 222.8 246.24 226.64 256.08 226.64C 265.92 226.64 275.2 222.8 282.16 215.84L 292.56 226.24C 282.8 236.0 269.84 241.36 256.08 241.36C 242.24 241.36 229.36 236.0 219.6 226.24L 230.0 215.84Z M 256.0 394.48C 294.48 394.48 341.36 399.6 352.0 410.48C 362.8 421.6 360.0 444.0 360.0 466.48C 360.0 470.48 360.0 474.96 360.0 480.0H 152.0C 152.0 474.96 152.0 470.48 152.0 466.48C 152.0 444.0 157.2 421.6 168.0 410.48C 178.64 399.6 216.88 394.48 256.0 394.48Z M 198.88 463.92C 198.88 463.92 224.8 458.48 256.0 458.48C 285.84 458.48 316.96 463.92 316.96 463.92L 335.04 440.8C 335.04 440.8 256.0 426.48 257.92 429.44C 257.92 429.52 180.8 440.8 180.8 440.8L 198.88 463.92Z M 258.32 199.84C 258.24 199.84 258.16 199.84 258.08 199.84C 258.0 199.84 258.0 199.84 257.92 199.84C 223.84 199.6 190.56 197.44 176.32 182.48C 162.88 168.32 152.0 143.84 152.0 119.84C 152.0 107.76 152.0 38.96 152.0 -32.0H 168.0V 31.84L 184.0 -16.16V -32.0H 328.0V -16.16L 344.0 31.84V -32.0H 360.0C 360.0 38.96 360.0 107.76 360.0 119.84C 360.0 143.84 353.44 168.32 339.92 182.48C 325.68 197.44 292.4 199.6 258.32 199.84Z M 312.0 15.84C 312.0 15.84 280.0 23.84 256.0 23.84S 200.0 15.84 200.0 15.84L 176.0 87.84C 176.0 87.84 196.24 111.84 256.0 111.84C 315.52 111.84 344.0 87.84 344.0 87.84L 312.0 15.84Z " />
			<glyph glyph-name="dr-finance" unicode="&#xe637;" d="M 265.088 147.968V 102.704C 276.864 104.768 282.752 112.32 282.752 125.424C 282.752 130.288 281.712 134.304 279.616 137.52C 277.536 140.704 272.64 144.176 265.088 147.968Z M 229.28 221.568C 229.28 216.048 230.56 211.616 233.152 208.192S 240.128 201.856 246.288 199.344V 241.824C 234.976 240.096 229.28 233.344 229.28 221.568Z M 444.224 223.04C 402.096 290.768 340.528 353.808 319.36 376.16C 349.632 402.992 338.336 389.2 362.144 418.016C 391.088 453.04 362.144 478.928 256.0 478.928C 149.904 478.928 120.976 453.056 149.904 418.016C 173.696 389.184 162.4 402.992 192.672 376.16C 171.504 353.792 109.936 290.784 67.808 223.04C 52.752 198.816 43.776 171.664 43.776 142.688C 43.776 26.944 138.784 -30.96 256.0 -30.96S 468.224 26.928 468.224 142.688C 468.24 171.696 459.264 198.832 444.224 223.04Z M 306.368 85.12C 296.656 74.784 282.928 68.704 265.056 66.88V 32.976H 246.272V 66.24C 225.744 66.88 207.344 71.424 191.152 79.856V 119.712C 199.808 114.672 208.928 110.512 218.56 107.264C 228.16 104.048 237.424 102.208 246.272 101.776V 156.56L 240.56 159.136C 222.24 167.888 209.392 176.976 202.128 186.288C 194.8 195.648 191.152 207.408 191.152 221.568C 191.152 237.776 195.968 250.848 205.584 260.736C 215.216 270.624 228.768 276.528 246.288 278.464V 304.56H 265.088V 278.8C 281.872 277.712 298.496 273.072 315.056 264.832L 302.032 230.304C 288.224 237.008 275.888 240.832 265.088 241.824V 190.4C 268.448 189.12 270.08 188.384 270.08 188.128C 283.84 182.208 294.128 176.448 300.912 170.88C 307.712 165.312 312.72 158.928 315.984 151.744C 319.248 144.576 320.864 136.112 320.864 126.368C 320.88 109.184 316.048 95.44 306.368 85.12Z " />
			<glyph glyph-name="dr-payment" unicode="&#xe638;" d="M 417.648 16.192C 417.648 -9.344 397.008 -30.0 371.472 -30.0H 140.56C 115.04 -30.0 94.384 -9.344 94.384 16.192V 431.824C 94.384 457.312 115.04 478.0 140.56 478.0H 371.472C 397.008 478.0 417.648 457.312 417.648 431.824V 16.192Z M 140.56 431.824V 293.28H 371.472V 431.824H 140.56Z M 140.56 200.912H 186.752V 247.104H 140.56V 200.912Z M 232.928 200.912H 279.104V 247.104H 232.928V 200.912Z M 325.28 200.912H 371.472V 247.104H 325.28V 200.912Z M 140.56 108.544H 186.752V 154.736H 140.56V 108.544Z M 232.928 108.544H 279.104V 154.736H 232.928V 108.544Z M 325.28 108.544H 371.472V 154.736H 325.28V 108.544Z M 140.56 16.192H 186.752V 62.368H 140.56V 16.192Z M 232.928 16.192H 279.104V 62.368H 232.928V 16.192Z M 325.28 16.192H 371.472V 62.368H 325.28V 16.192Z " />
			<glyph glyph-name="dr-prequal" unicode="&#xe639;" d="M 444.224 223.04C 402.096 290.768 340.528 353.808 319.36 376.16C 349.632 402.992 338.336 389.2 362.144 418.016C 391.088 453.04 362.144 478.928 256.0 478.928C 149.904 478.928 120.976 453.056 149.904 418.016C 173.696 389.184 162.4 402.992 192.672 376.16C 171.504 353.792 109.936 290.784 67.808 223.04C 52.752 198.816 43.776 171.664 43.776 142.688C 43.776 26.944 138.784 -30.96 256.0 -30.96S 468.224 26.928 468.224 142.688C 468.24 171.696 459.264 198.832 444.224 223.04Z M 276.72 51.616C 272.0 46.784 265.232 44.368 256.448 44.368C 247.648 44.368 240.896 46.736 236.176 51.456S 229.088 62.816 229.088 71.392C 229.088 80.064 231.424 86.736 236.096 91.408S 247.536 98.416 256.448 98.416C 265.44 98.416 272.256 96.032 276.864 91.264C 281.488 86.48 283.792 79.856 283.792 71.408C 283.792 63.04 281.44 56.448 276.72 51.616Z M 315.44 204.288C 311.808 195.552 304.288 185.04 292.864 172.72C 285.504 164.704 280.816 158.528 278.784 154.192S 275.744 143.936 275.744 136.48V 126.432H 236.848V 137.968C 236.848 148.512 238.464 157.712 241.712 165.584C 244.96 173.424 250.848 181.872 259.424 190.864C 267.552 199.776 272.736 206.736 274.992 211.808C 277.248 216.848 278.368 223.28 278.368 231.088C 278.368 238.224 276.72 244.048 273.424 248.544C 270.128 253.056 264.912 255.296 257.76 255.296C 245.904 255.296 233.424 251.072 220.368 242.608L 204.88 275.568C 222.128 287.328 241.232 293.2 262.224 293.2C 280.352 293.2 294.656 288.176 305.152 278.128S 320.88 254.096 320.88 236.192C 320.88 223.648 319.056 213.008 315.44 204.288Z " />
			<glyph glyph-name="dr-protect" unicode="&#xe63a;" d="M 454.592 411.28C 399.776 430.224 321.152 440.624 256.0 440.624S 112.208 430.256 57.424 411.28C 46.96 407.584 39.376 397.392 39.376 385.648L 39.456 383.664C 44.064 256.576 64.448 144.832 75.472 133.744C 100.736 100.144 181.52 48.0 225.216 19.456C 235.6 12.688 245.52 7.648 255.984 7.36C 266.464 7.648 276.384 12.688 286.768 19.456C 330.464 47.952 411.232 100.128 436.512 133.744C 447.52 144.832 467.92 256.56 472.512 383.664L 472.608 385.648C 472.624 397.392 465.024 407.584 454.592 411.28Z M 400.992 305.68L 237.952 137.632C 235.76 135.376 232.176 135.376 229.968 137.632L 193.408 175.296C 191.216 177.568 187.632 181.264 185.424 183.504L 141.456 228.848C 139.264 231.136 139.264 234.816 141.456 237.056L 178.016 274.752C 180.224 277.024 183.792 277.024 185.984 274.752L 229.984 229.408C 232.176 227.136 235.744 227.136 237.984 229.408L 356.128 351.264C 358.336 353.52 361.92 353.52 364.144 351.28L 400.944 313.888C 403.168 311.632 403.168 307.936 400.992 305.68Z " />
			<glyph glyph-name="dr-reserve" unicode="&#xe63b;" d="M 510.848 224.0L 454.768 269.36L 485.616 334.56L 415.392 351.104L 414.896 423.232L 344.464 407.68L 312.72 472.448L 256.0 427.872L 199.296 472.448L 167.568 407.68L 97.104 423.248L 96.608 351.104L 26.384 334.576L 57.232 269.376L 1.152 224.0L 57.232 178.64L 26.384 113.44L 96.608 96.88L 97.104 24.752L 167.552 40.304L 199.28 -24.448L 256.0 20.128L 312.72 -24.448L 344.464 40.304L 414.88 24.752L 415.376 96.88L 485.6 113.44L 454.752 178.64L 510.848 224.0Z M 349.264 108.816C 349.264 101.152 342.976 94.848 335.264 94.848H 176.72C 169.04 94.848 162.736 101.152 162.736 108.816V 248.736C 162.736 256.432 169.04 262.72 176.72 262.72H 181.376V 318.688C 181.376 349.536 206.496 374.656 237.344 374.656H 274.656C 305.504 374.656 330.624 349.552 330.624 318.688V 262.72H 335.264C 342.976 262.72 349.264 256.432 349.264 248.736V 108.816Z M 274.656 337.328H 237.344C 227.056 337.328 218.688 328.96 218.688 318.672V 262.704H 293.328V 318.672C 293.328 328.96 284.944 337.328 274.656 337.328Z M 274.656 188.096C 274.656 198.416 266.32 206.768 256.0 206.768S 237.344 198.416 237.344 188.096C 237.344 181.712 240.56 176.096 245.472 172.736L 237.344 132.144H 274.656L 266.528 172.736C 271.44 176.096 274.656 181.696 274.656 188.096Z " />
			<glyph glyph-name="dr-trade" unicode="&#xe63c;" d="M 385.648 86.4C 310.992 16.976 194.0 18.224 121.36 90.304C 91.664 119.824 73.92 156.688 68.08 195.056L 4.336 192.96C 10.88 139.136 34.928 87.024 76.464 45.76C 173.808 -50.88 330.848 -52.032 430.368 41.968L 484.144 -11.472L 493.408 157.616L 314.368 157.184L 385.648 86.4Z M 18.64 290.352L 197.664 290.8L 126.384 361.616C 201.056 431.04 318.016 429.84 390.656 357.712C 420.368 328.192 438.112 291.312 443.936 252.912L 507.648 255.024C 501.088 308.88 477.088 361.008 435.488 402.272C 338.176 498.896 181.088 500.064 81.632 406.0L 27.808 459.456L 18.64 290.352Z " />
			<glyph glyph-name="driveline" unicode="&#xe63d;" d="M 260.016 348.056C 189.296 348.056 131.968 290.728 131.968 220.0S 189.296 91.944 260.016 91.944S 388.064 149.272 388.064 220.0S 330.736 348.056 260.016 348.056Z M 147.976 220.0C 147.976 251.504 161.016 279.888 181.928 300.256L 225.616 240.104C 222.784 235.272 220.984 229.808 220.4 223.936L 149.712 200.968C 148.648 207.168 147.976 213.504 147.976 220.0Z M 244.008 109.216C 206.832 114.544 175.616 138.056 159.6 170.528L 230.248 193.48C 234.072 189.2 238.696 185.664 244.016 183.336L 244.008 109.216L 244.008 109.216Z M 236.008 212.0C 231.576 212.0 228.008 215.576 228.008 220.0S 231.584 228.0 236.008 228.0C 240.432 228.0 244.008 224.424 244.008 220.0S 240.432 212.0 236.008 212.0Z M 260.016 187.984C 255.592 187.984 252.016 191.56 252.016 195.992C 252.016 200.416 255.592 203.992 260.016 203.992C 264.44 203.992 268.016 200.416 268.016 195.992C 268.016 191.56 264.44 187.984 260.016 187.984Z M 260.016 236.008C 255.592 236.008 252.016 239.584 252.016 244.008C 252.016 248.44 255.592 252.016 260.016 252.016C 264.44 252.016 268.016 248.44 268.016 244.008C 268.016 239.584 264.44 236.008 260.016 236.008Z M 260.016 260.016C 257.064 260.016 254.192 259.648 251.44 259.048L 207.808 319.112C 223.408 327.336 241.152 332.048 260.016 332.048C 278.872 332.048 296.632 327.336 312.216 319.112L 268.592 259.048C 265.832 259.648 262.968 260.016 260.016 260.016Z M 292.032 220.0C 292.032 215.576 288.456 212.0 284.024 212.0C 279.6 212.0 276.024 215.576 276.024 220.0S 279.6 228.0 284.024 228.0C 288.456 228.0 292.032 224.424 292.032 220.0Z M 276.024 109.216L 276.024 183.36C 281.344 185.688 285.968 189.2 289.8 193.488L 360.44 170.552C 344.416 138.072 313.2 114.544 276.024 109.216Z M 370.32 200.984L 299.632 223.952C 299.048 229.808 297.248 235.288 294.424 240.12L 338.112 300.272C 359.024 279.888 372.056 251.496 372.056 220.0C 372.056 213.504 371.384 207.168 370.32 200.984Z M 436.072 223.992L 451.976 224.0C 451.688 238.392 449.824 252.392 446.528 265.832L 431.088 261.688L 429.016 269.424L 444.448 273.568C 440.48 287.256 435.056 300.336 428.312 312.552L 414.464 304.568L 410.464 311.488L 424.32 319.504C 416.976 331.6 408.312 342.768 398.568 352.928L 387.312 341.68L 381.656 347.336L 392.896 358.6C 382.744 368.336 371.584 377.008 359.488 384.344L 351.472 370.496L 344.536 374.496L 352.52 388.344C 340.304 395.088 327.24 400.512 313.568 404.48L 309.4 389.048L 301.672 391.12L 305.8 406.576C 292.36 409.872 278.36 411.728 263.968 412.024L 263.968 396.112L 255.968 396.112L 255.968 411.984C 241.576 411.696 227.584 409.824 214.128 406.544L 218.264 391.104L 210.528 389.032L 206.4 404.448C 192.72 400.48 179.64 395.056 167.408 388.304L 175.4 374.472L 168.464 370.472L 160.472 384.304C 148.384 376.968 137.2 368.296 127.048 358.56L 138.296 347.304L 132.632 341.648L 121.384 352.888C 111.64 342.728 102.976 331.56 95.64 319.464L 109.48 311.464L 105.48 304.528L 91.64 312.512C 84.896 300.288 79.472 287.216 75.512 273.528L 90.928 269.392L 88.856 261.656L 73.44 265.816C 70.136 252.368 68.28 238.368 67.984 223.984L 83.896 223.984L 83.896 215.984L 68.048 216.0C 68.344 201.608 70.2 187.608 73.496 174.168L 88.928 178.312L 91.0 170.576L 75.584 166.432C 79.544 152.744 84.96 139.664 91.704 127.448L 105.552 135.432L 109.552 128.512L 95.696 120.496C 103.032 108.4 111.696 97.232 121.432 87.072L 132.696 98.32L 138.36 92.664L 127.112 81.4C 137.256 71.664 148.432 62.992 160.52 55.656L 168.528 69.504L 175.464 65.504L 167.464 51.656C 179.696 44.912 192.768 39.488 206.44 35.52L 210.592 50.952L 218.32 48.88L 214.192 33.424C 227.64 30.128 241.632 28.272 256.024 27.976L 256.024 43.888L 264.024 43.888L 264.024 28.0C 278.416 28.288 292.416 30.16 305.856 33.44L 301.712 48.88L 309.448 50.952L 313.592 35.536C 327.264 39.504 340.344 44.928 352.56 51.68L 344.576 65.512L 351.512 69.512L 359.512 55.68C 371.608 63.016 382.776 71.688 392.944 81.424L 381.696 92.68L 387.352 98.336L 398.6 87.096C 408.344 97.256 417.008 108.424 424.352 120.52L 410.504 128.52L 414.504 135.456L 428.344 127.472C 435.088 139.696 440.512 152.768 444.488 166.456L 429.056 170.592L 431.128 178.328L 446.568 174.192C 449.864 187.64 451.728 201.64 452.024 216.024L 436.12 216.024L 436.12 224.0L 436.072 224.0Z M 260.016 75.936C 180.464 75.936 115.96 140.432 115.96 220.0S 180.464 364.064 260.016 364.064C 339.576 364.064 404.072 299.568 404.072 220.0S 339.576 75.936 260.016 75.936Z " />
			<glyph glyph-name="drivetrain-4x2" unicode="&#xe63e;" d="M 340.0 420.0L 340.0 372.0L 180.0 372.0L 180.0 420.0L 132.0 420.0L 132.0 308.0L 180.0 308.0L 180.0 356.0L 252.0 356.0L 252.0 292.0L 268.0 292.0L 268.0 356.0L 340.0 356.0L 340.0 308.0L 388.0 308.0L 388.0 420.0Z M 340.0 83.968L 285.112 83.968C 284.416 85.136 283.632 86.272 282.624 87.28L 271.312 98.592C 270.304 99.6 269.168 100.384 268.0 101.072L 268.0 180.0L 252.0 180.0L 252.0 101.072C 250.824 100.384 249.696 99.6 248.688 98.592L 237.368 87.28C 236.368 86.272 235.576 85.136 234.896 83.968L 180.0 83.968L 180.0 131.968L 132.0 131.968L 132.0 20.0L 180.0 20.0L 180.0 68.0L 234.88 68.0C 235.56 66.816 236.352 65.672 237.368 64.656L 248.688 53.344C 254.936 47.096 265.064 47.096 271.312 53.344L 282.624 64.656C 283.64 65.672 284.44 66.816 285.12 68.0L 340.0 68.0L 340.0 20.0L 388.0 20.0L 388.0 131.968L 340.0 131.968L 340.0 83.968Z M 181.456 289.624L 146.024 232.584L 146.024 218.328L 187.512 218.328L 187.512 196.0L 208.248 196.0L 208.248 218.328L 219.48 218.328L 219.48 234.752L 208.248 234.752L 208.248 289.624L 181.456 289.624Z M 187.512 255.504L 187.512 234.752L 166.48 234.752L 166.48 235.04L 179.008 255.504C 182.184 261.408 184.632 266.88 187.656 272.944L 188.232 272.944C 187.8 266.872 187.512 261.112 187.512 255.504Z M 247.128 196.0L 253.76 208.688C 255.488 212.16 257.36 215.608 259.096 219.352L 259.52 219.352C 261.264 215.752 262.992 212.16 265.008 208.688L 272.072 196.016L 296.856 196.016L 273.368 232.888L 296.536 266.448L 272.768 266.448L 266.592 255.048C 264.712 251.592 262.984 247.992 261.096 244.248L 260.816 244.248C 258.952 247.552 257.064 251.144 255.048 254.744L 248.136 266.416L 248.136 266.416L 223.648 266.416L 246.984 231.84L 223.072 196.0L 247.128 196.0Z M 315.528 220.2L 303.408 209.248L 303.408 196.0L 369.824 196.0L 369.824 214.008L 334.544 214.008L 334.544 214.296L 343.184 221.48C 356.704 233.592 368.104 246.12 368.104 261.824C 368.104 278.824 356.432 291.2 335.264 291.2C 322.584 291.2 311.648 286.888 304.584 281.56L 310.76 265.856C 315.656 269.608 322.712 273.64 330.792 273.64C 341.6 273.64 346.2 267.584 346.2 259.952C 345.928 249.008 335.984 238.488 315.528 220.2Z " />
			<glyph glyph-name="drivetrain-4x4" unicode="&#xe63f;" d="M 340.0 420.0L 340.0 372.0L 285.112 372.0C 284.416 373.168 283.632 374.304 282.624 375.312L 271.312 386.624C 265.064 392.872 254.936 392.872 248.688 386.624L 237.368 375.312C 236.368 374.304 235.576 373.168 234.896 372.0L 180.0 372.0L 180.0 420.0L 132.0 420.0L 132.0 308.0L 180.0 308.0L 180.0 356.0L 234.896 356.0C 235.576 354.832 236.36 353.696 237.368 352.688L 248.688 341.376C 249.696 340.368 250.824 339.584 252.0 338.904L 252.0 292.0L 268.0 292.0L 268.0 338.904C 269.168 339.584 270.304 340.368 271.312 341.376L 282.624 352.688C 283.632 353.696 284.416 354.832 285.112 356.0L 340.0 356.0L 340.0 308.0L 388.0 308.0L 388.0 420.0L 340.0 420.0Z M 340.0 83.968L 285.128 83.968C 284.44 85.152 283.64 86.296 282.632 87.312L 271.32 98.624C 270.312 99.632 269.176 100.416 268.008 101.112L 268.008 180.0L 252.008 180.0L 252.008 101.112C 250.832 100.416 249.704 99.632 248.696 98.624L 237.376 87.312C 236.368 86.296 235.576 85.152 234.888 83.968L 180.0 83.968L 180.0 131.968L 132.0 131.968L 132.0 20.0L 180.0 20.0L 180.0 68.0L 234.896 68.0C 235.576 66.832 236.36 65.696 237.368 64.688L 248.688 53.376C 254.936 47.128 265.064 47.128 271.312 53.376L 282.624 64.688C 283.632 65.696 284.416 66.832 285.112 68.0L 340.0 68.0L 340.0 20.0L 388.0 20.0L 388.0 131.968L 340.0 131.968L 340.0 83.968Z M 181.456 289.624L 146.024 232.584L 146.024 218.328L 187.512 218.328L 187.512 196.0L 208.248 196.0L 208.248 218.328L 219.48 218.328L 219.48 234.752L 208.248 234.752L 208.248 289.624L 181.456 289.624Z M 187.512 255.504L 187.512 234.752L 166.48 234.752L 166.48 235.04L 179.008 255.504C 182.184 261.408 184.632 266.88 187.656 272.944L 188.232 272.944C 187.8 266.872 187.512 261.112 187.512 255.504Z M 247.128 196.0L 253.76 208.688C 255.488 212.16 257.36 215.608 259.096 219.352L 259.52 219.352C 261.264 215.752 262.992 212.16 265.008 208.688L 272.072 196.016L 296.856 196.016L 273.368 232.888L 296.536 266.448L 272.768 266.448L 266.592 255.048C 264.712 251.592 262.984 247.992 261.096 244.248L 260.816 244.248L 255.048 254.744L 248.136 266.416L 223.648 266.416L 246.984 231.84L 223.072 196.0L 247.128 196.0Z M 336.128 289.624L 300.68 232.584L 300.68 218.328L 342.176 218.328L 342.176 196.0L 362.912 196.0L 362.912 218.328L 374.144 218.328L 374.144 234.752L 362.912 234.752L 362.912 289.624L 336.128 289.624Z M 342.168 255.504L 342.168 234.752L 321.136 234.752L 321.136 235.04L 333.656 255.504C 336.824 261.408 339.28 266.88 342.296 272.944L 342.864 272.944C 342.456 266.872 342.168 261.112 342.168 255.504Z " />
			<glyph glyph-name="drivetrain-awd" unicode="&#xe640;" d="M 159.552 215.384L 154.168 196.0L 136.464 196.0L 159.544 271.528L 181.96 271.528L 205.376 196.0L 187.0 196.0L 181.168 215.384L 159.552 215.384Z M 178.712 228.168L 174.008 244.184C 172.664 248.68 171.32 254.28 170.2 258.736L 169.976 258.736C 168.856 254.256 167.736 248.56 166.504 244.184L 162.016 228.168L 178.712 228.168Z M 221.032 196.0L 203.104 271.528L 221.368 271.528L 227.08 240.36C 228.76 231.4 230.328 221.648 231.568 214.024L 231.792 214.024C 233.024 222.192 234.816 231.28 236.728 240.584L 243.112 271.496L 261.264 271.496L 267.312 239.664C 269.0 230.824 270.232 222.744 271.352 214.336L 271.576 214.336C 272.696 222.744 274.376 231.592 275.944 240.552L 282.112 271.488L 299.488 271.488L 279.984 196.0L 261.488 196.0L 255.112 228.496C 253.656 236.104 252.424 243.168 251.528 251.792L 251.304 251.792C 249.96 243.288 248.728 236.104 246.936 228.496L 239.752 196.0L 221.032 196.0Z M 308.28 270.512C 314.544 271.528 322.736 272.064 331.36 272.064C 345.704 272.064 355.008 269.512 362.296 264.0C 370.136 258.168 375.064 248.848 375.064 235.52C 375.064 221.056 369.8 211.08 362.52 204.944C 354.568 198.328 342.456 195.176 327.688 195.176C 318.856 195.176 312.552 195.736 308.304 196.312L 308.28 270.512L 308.28 270.512Z M 325.424 208.888C 326.896 208.544 329.24 208.544 331.36 208.544C 346.832 208.432 356.904 216.952 356.904 235.0C 357.024 250.688 347.824 258.976 333.152 258.976C 329.32 258.976 326.872 258.64 325.4 258.304L 325.424 208.888L 325.424 208.888Z M 252.0 356.0L 268.0 356.0L 268.0 292.0L 252.0 292.0Z M 252.0 180.0L 268.0 180.0L 268.0 67.968L 252.0 67.968Z M 132.0 420.0L 180.0 420.0L 180.0 308.0L 132.0 308.0Z M 340.0 420.0L 388.0 420.0L 388.0 308.0L 340.0 308.0Z M 132.0 131.968L 180.0 131.968L 180.0 20.0L 132.0 20.0Z M 340.0 131.968L 388.0 131.968L 388.0 20.0L 340.0 20.0Z M 180.0 372.0L 340.0 372.0L 340.0 356.0L 180.0 356.0Z M 180.0 83.968L 340.0 83.968L 340.0 68.0L 180.0 68.0Z M 271.312 53.376C 265.064 47.128 254.936 47.128 248.688 53.376L 237.368 64.688C 231.128 70.936 231.128 81.064 237.368 87.312L 248.688 98.624C 254.936 104.872 265.064 104.872 271.312 98.624L 282.624 87.312C 288.872 81.064 288.872 70.936 282.624 64.688L 271.312 53.376Z M 271.312 341.376C 265.064 335.128 254.936 335.128 248.688 341.376L 237.368 352.688C 231.128 358.936 231.128 369.064 237.368 375.312L 248.688 386.624C 254.936 392.872 265.064 392.872 271.312 386.624L 282.624 375.312C 288.872 369.064 288.872 358.936 282.624 352.688L 271.312 341.376Z " />
			<glyph glyph-name="drivetrain-fwd" unicode="&#xe641;" d="M 149.176 271.528L 195.344 271.528L 195.344 257.512L 166.32 257.512L 166.32 240.264L 193.44 240.264L 193.44 226.368L 166.32 226.368L 166.32 196.0L 149.168 196.0L 149.176 271.528L 149.176 271.528Z M 220.416 196.0L 202.488 271.528L 220.752 271.528L 226.464 240.36C 228.144 231.4 229.712 221.648 230.952 214.024L 231.176 214.024C 232.408 222.192 234.2 231.28 236.112 240.584L 242.496 271.496L 260.648 271.496L 266.704 239.664C 268.384 230.824 269.616 222.744 270.744 214.336L 270.96 214.336C 272.096 222.744 273.768 231.592 275.336 240.552L 281.504 271.488L 298.88 271.488L 279.36 196.0L 260.864 196.0L 254.496 228.496C 253.04 236.104 251.808 243.168 250.912 251.792L 250.688 251.792C 249.344 243.288 248.112 236.104 246.32 228.496L 239.128 196.0L 220.416 196.0Z M 307.656 270.512C 313.928 271.528 322.112 272.064 330.736 272.064C 345.08 272.064 354.384 269.512 361.672 264.0C 369.512 258.168 374.44 248.848 374.44 235.52C 374.44 221.056 369.176 211.08 361.896 204.944C 353.96 198.328 341.832 195.176 327.064 195.176C 318.232 195.176 311.936 195.736 307.68 196.312L 307.656 270.512L 307.656 270.512Z M 324.8 208.888C 326.28 208.544 328.632 208.544 330.736 208.544C 346.208 208.432 356.288 216.952 356.288 235.0C 356.4 250.688 347.2 258.976 332.528 258.976C 328.696 258.976 326.256 258.64 324.792 258.304L 324.792 208.888L 324.8 208.888Z M 132.0 420.0L 180.0 420.0L 180.0 308.0L 132.0 308.0Z M 340.0 420.0L 388.0 420.0L 388.0 308.0L 340.0 308.0Z M 132.0 131.968L 180.0 131.968L 180.0 20.0L 132.0 20.0Z M 340.0 131.968L 388.0 131.968L 388.0 20.0L 340.0 20.0Z M 180.0 372.0L 340.0 372.0L 340.0 356.0L 180.0 356.0Z M 180.0 83.968L 340.0 83.968L 340.0 68.0L 180.0 68.0Z M 271.312 341.376C 265.064 335.128 254.936 335.128 248.688 341.376L 237.368 352.688C 231.128 358.936 231.128 369.064 237.368 375.312L 248.688 386.624C 254.936 392.872 265.064 392.872 271.312 386.624L 282.624 375.312C 288.872 369.064 288.872 358.936 282.624 352.688L 271.312 341.376Z " />
			<glyph glyph-name="drivetrain-rwd" unicode="&#xe642;" d="M 145.488 270.512C 150.984 271.392 159.16 272.064 168.24 272.064C 179.448 272.064 187.288 270.384 192.672 266.136C 197.152 262.56 199.616 257.296 199.616 250.328C 199.616 240.688 192.784 234.088 186.28 231.728L 186.28 231.392C 191.544 229.256 194.456 224.224 196.368 217.264C 198.72 208.76 201.072 198.88 202.528 195.976L 185.048 195.976C 183.816 198.12 182.024 204.264 179.784 213.568C 177.768 222.984 174.512 225.552 167.568 225.672L 162.408 225.672L 162.408 195.992L 145.488 195.992L 145.488 270.512Z M 162.408 238.024L 169.128 238.024C 177.648 238.024 182.688 242.28 182.688 248.888C 182.688 255.84 177.984 259.312 170.136 259.408C 165.984 259.408 163.64 259.072 162.4 258.856L 162.408 238.024L 162.408 238.024Z M 223.448 196.0L 205.52 271.528L 223.784 271.528L 229.496 240.36C 231.176 231.4 232.744 221.648 233.984 214.024L 234.208 214.024C 235.44 222.192 237.232 231.28 239.144 240.584L 245.528 271.496L 263.68 271.496L 269.736 239.664C 271.416 230.824 272.648 222.744 273.784 214.336L 273.992 214.336C 275.128 222.744 276.8 231.592 278.368 240.552L 284.536 271.488L 301.92 271.488L 282.4 195.984L 263.904 195.984L 257.528 228.48C 256.064 236.088 254.848 243.152 253.952 251.776L 253.728 251.776C 252.384 243.272 251.152 236.088 249.36 228.48L 242.16 196.0L 223.448 196.0Z M 310.688 270.512C 316.96 271.528 325.144 272.064 333.768 272.064C 348.112 272.064 357.416 269.512 364.704 264.0C 372.544 258.168 377.472 248.848 377.472 235.52C 377.472 221.056 372.208 211.08 364.944 204.944C 356.992 198.328 344.864 195.176 330.104 195.176C 321.264 195.176 314.968 195.736 310.712 196.312L 310.688 270.512L 310.688 270.512Z M 327.832 208.888C 329.312 208.544 331.664 208.544 333.768 208.544C 349.24 208.432 359.32 216.952 359.32 235.0C 359.44 250.688 350.232 258.976 335.56 258.976C 331.728 258.976 329.288 258.64 327.824 258.304L 327.824 208.888L 327.832 208.888Z M 252.0 356.0L 268.0 356.0L 268.0 292.0L 252.0 292.0Z M 252.0 180.0L 268.0 180.0L 268.0 67.968L 252.0 67.968Z M 132.0 420.0L 180.0 420.0L 180.0 308.0L 132.0 308.0Z M 340.0 420.0L 388.0 420.0L 388.0 308.0L 340.0 308.0Z M 132.0 131.968L 180.0 131.968L 180.0 20.0L 132.0 20.0Z M 340.0 131.968L 388.0 131.968L 388.0 20.0L 340.0 20.0Z M 180.0 83.968L 340.0 83.968L 340.0 68.0L 180.0 68.0Z M 271.312 53.376C 265.064 47.128 254.936 47.128 248.688 53.376L 237.368 64.688C 231.128 70.936 231.128 81.064 237.368 87.312L 248.688 98.624C 254.936 104.872 265.064 104.872 271.312 98.624L 282.624 87.312C 288.872 81.064 288.872 70.936 282.624 64.688L 271.312 53.376Z M 236.0 404.0L 284.0 404.0L 284.0 332.0L 236.0 332.0Z " />
			<glyph glyph-name="drs-apply" unicode="&#xe643;" d="M 256.0 384.0C 167.64 384.0 96.0 312.376 96.0 224.0S 167.64 64.0 256.0 64.0C 344.376 64.0 416.0 135.624 416.0 224.0S 344.376 384.0 256.0 384.0Z M 256.0 77.608C 175.288 77.608 109.608 143.28 109.608 224.0S 175.288 370.392 256.0 370.392C 336.72 370.392 402.392 304.728 402.392 224.0S 336.72 77.608 256.0 77.608Z M 293.104 218.568C 289.448 221.616 284.952 224.184 279.64 226.296C 274.328 228.392 268.28 230.304 261.504 232.032C 258.36 232.816 255.352 233.592 252.496 234.376S 246.976 236.0 244.52 236.904C 242.064 237.824 239.848 238.84 237.872 239.984C 235.888 241.12 234.208 242.44 232.816 243.944S 230.352 247.2 229.592 249.2C 228.832 251.2 228.448 253.512 228.448 256.16C 228.448 259.664 229.184 262.872 230.656 265.736C 232.128 268.608 234.224 271.056 236.952 273.088S 242.952 276.68 246.784 277.776C 250.608 278.88 254.888 279.432 259.624 279.432C 263.28 279.432 266.872 279.2 270.416 278.744C 273.952 278.28 277.36 277.648 280.624 276.84S 286.968 275.072 289.864 273.976C 292.752 272.872 295.368 271.704 297.704 270.448V 285.888C 295.776 287.08 293.608 288.184 291.208 289.208C 288.8 290.224 286.208 291.128 283.408 291.912C 280.616 292.696 277.648 293.352 274.496 293.848C 271.352 294.36 268.064 294.704 264.656 294.88V 312.96H 248.0V 294.216C 241.632 293.4 236.04 291.912 231.208 289.744S 222.352 284.864 219.096 281.584C 215.848 278.32 213.4 274.528 211.76 270.232S 209.288 261.24 209.288 256.16C 209.288 250.232 210.256 245.16 212.184 240.952C 214.112 236.736 216.912 233.112 220.568 230.08S 228.712 224.488 234.024 222.376C 239.336 220.28 245.384 218.368 252.152 216.64C 255.312 215.824 258.312 215.04 261.168 214.28S 266.688 212.672 269.144 211.768C 271.6 210.848 273.816 209.832 275.792 208.688S 279.456 206.224 280.848 204.704S 283.312 201.424 284.072 199.424C 284.832 197.424 285.216 195.104 285.216 192.464C 285.216 188.504 284.312 185.016 282.496 182.016S 278.152 176.504 274.904 174.472S 267.776 170.912 263.28 169.88S 253.816 168.336 248.408 168.336C 246.0 168.336 243.544 168.448 241.016 168.688S 235.968 169.24 233.448 169.624C 230.928 170.016 228.44 170.472 225.984 171.024S 221.192 172.16 218.976 172.808C 216.76 173.448 214.688 174.104 212.752 174.784C 210.832 175.464 209.12 176.152 207.624 176.872V 161.28C 209.552 160.2 211.856 159.152 214.528 158.152S 220.12 156.264 223.288 155.488S 229.808 154.056 233.376 153.536C 236.92 153.016 240.544 152.688 244.232 152.544V 136.088H 260.888V 153.152C 267.528 154.024 273.528 155.624 278.896 157.928S 288.832 163.096 292.608 166.512S 299.28 173.84 301.312 178.248S 304.36 187.392 304.36 192.472C 304.36 198.4 303.4 203.464 301.472 207.68S 296.76 215.52 293.104 218.568Z " />
			</font>
</defs>
</svg>
